<?xml version="1.0" standalone="no"?><!DOCTYPE svg PUBLIC "-//W3C//DTD SVG 1.1//EN" "http://www.w3.org/Graphics/SVG/1.1/DTD/svg11.dtd" ><svg xmlns="http://www.w3.org/2000/svg"><metadata></metadata><defs><font id="FontEditor 1.0 : fonteditor" horiz-adv-x="1317"><font-face font-family="fonteditor" font-weight="400" font-stretch="normal" units-per-em="1024" panose-1="2 0 6 3 0 0 0 0 0 0" ascent="812" descent="-212" x-height="0" bbox="0 -146 1317 878" underline-thickness="0" underline-position="50" unicode-range="U+f002-f1e1" /><missing-glyph horiz-adv-x="374" d="M34 0 l0 682 l272 0 l0 -682 l-272 0 ZM68 34 l204 0 l0 614 l-204 0 l0 -614 Z" /><glyph glyph-name="search" unicode="&#xf002;" d="M583 221.5 q75 75.5 75 181 q0 105.5 -75 180.5 q-75 75 -180.5 75 q-105.5 0 -181 -75 q-75.5 -75 -75.5 -180.5 q0 -105.5 75.5 -181 q75.5 -75.5 181 -75.5 q105.5 0 180.5 75.5 ZM951 -73 q0 -30 -22 -51.5 q-22 -21.5 -51 -21.5 q-31 0 -52 21 l-196 196 q-102 -71 -228 -71 q-81 0 -156 31.5 q-75 31.5 -129 85.5 q-54 54 -85.5 129 q-31.5 75 -31.5 156.5 q0 81.5 31.5 156 q31.5 74.5 85.5 128.5 q54 54 129 86 q75 32 156.5 32 q81.5 0 156 -32 q74.5 -32 128.5 -86 q54 -54 86 -128.5 q32 -74.5 32 -156.5 q0 -125 -71 -228 l196 -196 q21 -21 21 -51 Z" /><glyph glyph-name="ok" unicode="&#xf00c;" d="M939 593 q16 -16 16 -39 q0 -23 -16 -39 l-414 -413 l-78 -78 q-16 -16 -38.5 -16 q-22.5 0 -38.5 16 l-78 78 l-207 207 q-16 16 -16 38.5 q0 22.5 16 38.5 l78 78 q16 16 39 16 q23 0 39 -16 l168 -169 l374 376 q16 16 39 16 q23 0 39 -16 l78 -78 Z" /><glyph glyph-name="remove" unicode="&#xf00d;" d="M726 161 q16 -16 16 -39 q0 -23 -16 -39 l-78 -77 q-16 -16 -39 -16 q-23 0 -39 16 l-168 168 l-168 -168 q-16 -16 -38.5 -16 q-22.5 0 -38.5 16 l-78 77 q-16 16 -16 39 q0 23 16 39 l168 168 l-168 168 q-16 16 -16 39 q0 23 16 39 l78 78 q16 16 38.5 16 q22.5 0 38.5 -16 l168 -168 l168 168 q16 16 39 16 q23 0 39 -16 l78 -78 q16 -16 16 -39 q0 -23 -16 -39 l-168 -168 l168 -168 Z" /><glyph glyph-name="home" unicode="&#xf015;" d="M805 311 l0 -274 q0 -15 -11 -26 q-11 -11 -26 -11 l-219 0 l0 219 l-147 0 l0 -219 l-219 0 q-15 0 -26 11 q-11 11 -11 26 l0 274 q0 0 0.5 1.5 q0.5 1.5 0.5 1.5 l328 271 l329 -271 q1 -1 1 -3 ZM932 350 l-35 -42 q-5 -5 -12 -6 l-2 0 q-8 0 -12 4 l-396 329 l-395 -329 q-7 -5 -14 -4 q-7 1 -12 6 l-35 42 q-5 6 -4.5 13.5 q0.5 7.5 6.5 12.5 l411 342 q18 15 43.5 15 q25.5 0 43.5 -15 l139 -116 l0 111 q0 8 5.5 13 q5.5 5 13.5 5 l109 0 q8 0 13.5 -5 q5.5 -5 5.5 -13 l0 -233 l125 -104 q5 -5 6 -12.5 q1 -7.5 -4 -13.5 Z" /><glyph glyph-name="twitter_sign" unicode="&#xf081;" d="M731 529 q-32 -14 -69 -19 q39 23 53 67 q-37 -22 -76 -30 q-35 38 -88 38 q-49 0 -84.5 -35 q-35.5 -35 -35.5 -85 q0 -16 3 -27 q-73 4 -138 37 q-65 33 -110 88 q-16 -28 -16 -60 q0 -65 52 -100 q-27 0 -57 15 l0 -1 q0 -43 28.5 -76.5 q28.5 -33.5 69.5 -41.5 q-16 -5 -29 -5 q-7 0 -22 3 q12 -36 42.5 -59.5 q30.5 -23.5 69.5 -24.5 q-66 -51 -149 -51 q-15 0 -29 1 q85 -53 184 -53 q64 0 120 20 q56 20 96 54 q40 34 69 78.5 q29 44.5 43 92.5 q14 48 14 96 q0 11 -1 16 q36 26 60 62 ZM878 640 l0 -549 q0 -68 -48.5 -116 q-48.5 -48 -116.5 -48 l-548 0 q-68 0 -116.5 48 q-48.5 48 -48.5 116 l0 549 q0 68 48.5 116.5 q48.5 48.5 116.5 48.5 l548 0 q68 0 116.5 -48.5 q48.5 -48.5 48.5 -116.5 Z" /><glyph glyph-name="facebook_sign" unicode="&#xf082;" d="M713 805 q68 0 116.5 -48.5 q48.5 -48.5 48.5 -116.5 l0 -549 q0 -68 -48.5 -116 q-48.5 -48 -116.5 -48 l-107 0 l0 340 l113 0 l18 132 l-131 0 l0 85 q0 32 13.5 48 q13.5 16 51.5 16 l70 1 l0 118 q-36 5 -102 5 q-77 0 -123.5 -45.5 q-46.5 -45.5 -46.5 -129.5 l0 -98 l-115 0 l0 -132 l115 0 l0 -340 l-304 0 q-68 0 -116.5 48 q-48.5 48 -48.5 116 l0 549 q0 68 48.5 116.5 q48.5 48.5 116.5 48.5 l548 0 Z" /><glyph glyph-name="github_sign" unicode="&#xf092;" d="M297 192 q2 3 -2 7 q-5 4 -8 2 q-2 -4 2 -8 q5 -4 8 -1 ZM281 215 q-3 4 -7 3 q-4 -3 0 -7 q4 -5 7 -3 q3 2 0 7 ZM257 238 q1 3 -3 5 q-4 1 -4 -1 q-2 -3 2 -5 q5 -1 5 1 ZM269 225 q1 1 1 3 q0 2 -2 3 q-3 4 -5.5 1.5 q-2.5 -2.5 0.5 -6.5 q3 -3 6 -1 ZM318 182 q1 4 -5 7 q-5 1 -7 -3 q-1 -4 5 -6 q5 -2 7 2 ZM336 176 q6 0 6 4.5 q0 4.5 -7 4.5 q-5 0 -5 -4.5 q0 -4.5 6 -4.5 ZM365 185 q-2 4 -8 2.5 q-6 -1.5 -5 -5.5 q1 -4 7 -3 q6 1 6 6 ZM731 366 q0 121 -85.5 206.5 q-85.5 85.5 -206.5 85.5 q-121 0 -207 -85.5 q-86 -85.5 -86 -206.5 q0 -96 56 -172 q56 -76 144 -106 q11 -2 15.5 2.5 q4.5 4.5 4.5 11.5 q0 30 0 55 q-4 -1 -9.5 -2 q-5.5 -1 -20 -1 q-14.5 0 -27 2.5 q-12.5 2.5 -25 11.5 q-12.5 9 -17.5 23 q-13 34 -32 43 q-1 0 -2.5 1.5 q-1.5 1.5 -4.5 4.5 q-3 3 -4 5.5 q-1 2.5 2 4.5 q3 2 11 2 q4 0 9 -1 q5 -1 17 -9 q12 -8 19 -20 q9 -16 21 -24 q12 -8 25 -8 q13 0 22 2 q9 2 17 5 q4 27 19 40 q-28 3 -49.5 10 q-21.5 7 -42 22.5 q-20.5 15.5 -31.5 43.5 q-11 28 -11 68 q0 45 30 78 q-13 36 3 78 q11 4 31.5 -4 q20.5 -8 34.5 -17 l15 -9 q33 10 73 10 q40 0 73 -10 q6 4 16 10 q10 6 32 15 q22 9 33 5 q16 -42 2 -78 q31 -33 31 -78 q0 -32 -8 -57 q-8 -25 -20.5 -40 q-12.5 -15 -30.5 -25.5 q-18 -10.5 -35.5 -15 q-17.5 -4.5 -39.5 -6.5 q20 -18 20 -55 q0 -23 -0.5 -51 q-0.5 -28 -0.5 -29 q0 -7 5 -11.5 q5 -4.5 15 -2.5 q88 30 144 106 q56 76 56 172 ZM878 640 l0 -549 q0 -68 -48.5 -116 q-48.5 -48 -116.5 -48 l-548 0 q-68 0 -116.5 48 q-48.5 48 -48.5 116 l0 549 q0 68 48.5 116.5 q48.5 48.5 116.5 48.5 l548 0 q68 0 116.5 -48.5 q48.5 -48.5 48.5 -116.5 Z" /><glyph glyph-name="_303" unicode="&#xf143;" d="M271.5 94.5 q21.5 21.5 21.5 52 q0 30.5 -21.5 51.5 q-21.5 21 -52 21 q-30.5 0 -52 -21 q-21.5 -21 -21.5 -51.5 q0 -30.5 21.5 -52 q21.5 -21.5 52 -21.5 q30.5 0 52 21.5 ZM493 93 q-7 133 -100.5 226.5 q-93.5 93.5 -226.5 100.5 q-8 1 -14 -5 q-6 -6 -6 -13 l0 -73 q0 -8 5 -13 q5 -5 12 -6 q88 -6 151 -69 q63 -63 69 -151 q1 -7 6 -12 q5 -5 13 -5 l73 0 q7 0 13 6 q6 6 5 14 ZM713 92 q-3 88 -32.5 170 q-29.5 82 -80 148.5 q-50.5 66.5 -117 117 q-66.5 50.5 -148.5 80 q-82 29.5 -170 31.5 q-8 1 -13 -5 q-6 -5 -6 -13 l0 -73 q0 -7 5.5 -12.5 q5.5 -5.5 12.5 -5.5 q117 -4 216 -64 q99 -60 159 -159.5 q60 -99.5 64 -215.5 q0 -8 5.5 -13 q5.5 -5 12.5 -5 l73 0 q8 0 13 6 q7 5 6 13 ZM878 640 l0 -549 q0 -68 -48.5 -116 q-48.5 -48 -116.5 -48 l-548 0 q-68 0 -116.5 48 q-48.5 48 -48.5 116 l0 549 q0 68 48.5 116.5 q48.5 48.5 116.5 48.5 l548 0 q68 0 116.5 -48.5 q48.5 -48.5 48.5 -116.5 Z" /><glyph glyph-name="google_plus_sign" unicode="&#xf0d4;" d="M524 361 q0 14 -3 36 l-207 0 l0 -75 l124 0 q-2 -14 -9.5 -29 q-7.5 -15 -21.5 -30.5 q-14 -15.5 -38 -25.5 q-24 -10 -55 -10 q-57 0 -97 41 q-40 41 -40 98 q0 57 40 97.5 q40 40.5 97 40.5 q52 0 87 -34 l60 58 q-62 57 -147 57 q-92 0 -156 -64 q-64 -64 -64 -155 q0 -91 64 -155.5 q64 -64.5 156 -64.5 q94 0 152 60 q58 60 58 155 ZM721 334 l62 0 l0 63 l-62 0 l0 63 l-63 0 l0 -63 l-63 0 l0 -63 l63 0 l0 -63 l63 0 l0 63 ZM878 640 l0 -549 q0 -68 -48.5 -116 q-48.5 -48 -116.5 -48 l-548 0 q-68 0 -116.5 48 q-48.5 48 -48.5 116 l0 549 q0 68 48.5 116.5 q48.5 48.5 116.5 48.5 l548 0 q68 0 116.5 -48.5 q48.5 -48.5 48.5 -116.5 Z" /><glyph glyph-name="linkedin_sign" unicode="&#xf08c;" d="M135 70 l132 0 l0 396 l-132 0 l0 -396 ZM276 589 q-1 29 -21 48.5 q-20 19.5 -53 19.5 q-33 0 -54 -19.5 q-21 -19.5 -21 -48.5 q0 -30 20.5 -49.5 q20.5 -19.5 53.5 -19.5 l0 0 q34 0 54.5 19.5 q20.5 19.5 20.5 49.5 ZM610 70 l132 0 l0 227 q0 88 -41.5 133 q-41.5 45 -110.5 45 q-77 0 -119 -66 l1 0 l0 57 l-132 0 q2 -37 0 -396 l132 0 l0 221 q0 22 4 32 q9 20 26 34 q17 14 42 14 q66 0 66 -89 l0 -212 ZM878 640 l0 -549 q0 -68 -48.5 -116 q-48.5 -48 -116.5 -48 l-548 0 q-68 0 -116.5 48 q-48.5 48 -48.5 116 l0 549 q0 68 48.5 116.5 q48.5 48.5 116.5 48.5 l548 0 q68 0 116.5 -48.5 q48.5 -48.5 48.5 -116.5 Z" /><glyph glyph-name="twitter" unicode="&#xf099;" d="M926 645 q-39 -56 -93 -96 q1 -8 1 -24 q0 -74 -22 -148 q-22 -74 -66 -142 q-44 -68 -105.5 -120.5 q-61.5 -52.5 -147.5 -83.5 q-86 -31 -184 -31 q-155 0 -284 83 q20 -2 45 -2 q128 0 229 78 q-60 2 -107.5 37.5 q-47.5 35.5 -65.5 90.5 q19 -2 35 -2 q25 0 49 6 q-64 13 -106 63.5 q-42 50.5 -42 117.5 l0 2 q39 -21 83 -23 q-38 25 -60 65.5 q-22 40.5 -22 88.5 q0 50 25 93 q69 -85 168 -136.5 q99 -51.5 213 -56.5 q-5 21 -5 42 q0 76 54 130 q54 54 131 54 q80 0 134 -58 q63 12 118 45 q-22 -66 -82 -102 q54 6 107 29 Z" /><glyph glyph-name="facebook" unicode="&#xf09a;" d="M548 871 l0 -151 l-90 0 q-49 0 -66 -20.5 q-17 -20.5 -17 -61.5 l0 -108 l167 0 l-22 -169 l-145 0 l0 -434 l-175 0 l0 434 l-146 0 l0 169 l146 0 l0 124 q0 107 59.5 165.5 q59.5 58.5 158.5 58.5 q84 0 130 -7 Z" /><glyph glyph-name="linkedin" unicode="&#xf0e1;" d="M199 521 l0 -567 l-188 0 l0 567 l188 0 ZM211 695 q1 -41 -28.5 -69 q-29.5 -28 -77.5 -28 l-1 0 q-47 0 -75.5 28 q-28.5 28 -28.5 69 q0 43 29.5 70.5 q29.5 27.5 77 27.5 q47.5 0 76 -27.5 q28.5 -27.5 28.5 -70.5 ZM878 279 l0 -325 l-188 0 l0 303 q0 60 -23.5 94 q-23.5 34 -72.5 34 q-36 0 -60 -19.5 q-24 -19.5 -36 -48.5 q-7 -18 -7 -47 l0 -316 l-188 0 q2 228 2 370 q0 142 -1 169 l-1 28 l188 0 l0 -83 l-1 0 q12 19 24 32.5 q12 13.5 32 29.5 q20 16 49.5 25 q29.5 9 65.5 9 q98 0 157.5 -65 q59.5 -65 59.5 -190 Z" /><glyph glyph-name="github_alt" unicode="&#xf113;" d="M358.5 230 q7.5 -24 7.5 -47 q0 -23 -7.5 -47 q-7.5 -24 -24.5 -43.5 q-17 -19.5 -41 -19.5 q-24 0 -41.5 19.5 q-17.5 19.5 -25 43.5 q-7.5 24 -7.5 47 q0 23 7.5 47 q7.5 24 25 43.5 q17.5 19.5 41.5 19.5 q24 0 41 -19.5 q17 -19.5 24.5 -43.5 ZM724 230 q7 -24 7 -47 q0 -23 -7 -47 q-7 -24 -24.5 -43.5 q-17.5 -19.5 -41.5 -19.5 q-24 0 -41.5 19.5 q-17.5 19.5 -24.5 43.5 q-7 24 -7 47 q0 23 7 47 q7 24 24.5 43.5 q17.5 19.5 41.5 19.5 q24 0 41.5 -19.5 q17.5 -19.5 24.5 -43.5 ZM823 183 q0 68 -39.5 116 q-39.5 48 -106.5 48 q-24 0 -112 -12 q-40 -6 -89.5 -6 q-49.5 0 -89.5 6 q-87 12 -112 12 q-67 0 -106.5 -48 q-39.5 -48 -39.5 -116 q0 -50 18.5 -87.5 q18.5 -37.5 46.5 -59 q28 -21.5 69.5 -34.5 q41.5 -13 80 -17 q38.5 -4 84.5 -4 l96 0 q47 0 85.5 4 q38.5 4 80 17 q41.5 13 69.5 34.5 q28 21.5 46.5 59 q18.5 37.5 18.5 87.5 ZM951 283 q0 -118 -35 -189 q-22 -44 -60.5 -76 q-38.5 -32 -80.5 -49 q-42 -17 -97 -27 q-55 -10 -98 -12.5 q-43 -2.5 -95 -2.5 q-45 0 -81.5 1.5 q-36.5 1.5 -84.5 7 q-48 5.5 -87 17.5 q-39 12 -78 29.5 q-39 17.5 -69.5 46 q-30.5 28.5 -49.5 65.5 q-35 71 -35 189 q0 136 78 227 q-16 47 -16 97 q0 66 29 124 q62 0 109 -22.5 q47 -22.5 108 -70.5 q84 20 177 20 q84 0 160 -18 q60 47 106.5 69 q46.5 22 107.5 22 q30 -58 30 -124 q0 -50 -16 -96 q78 -92 78 -228 Z" /><glyph glyph-name="github" unicode="&#xf09b;" d="M218.5 746 q100.5 59 220 59 q119.5 0 220.5 -59 q101 -59 160 -160 q59 -101 59 -220 q0 -144 -84 -258.5 q-84 -114.5 -216 -158.5 q-16 -3 -23.5 4 q-7.5 7 -7.5 17 q0 2 0.5 44 q0.5 42 0.5 77 q0 55 -30 81 q33 3 59 10 q26 7 53.5 22.5 q27.5 15.5 46 38 q18.5 22.5 30.5 60 q12 37.5 12 86.5 q0 68 -45 117 q21 52 -5 117 q-16 5 -46 -6.5 q-30 -11.5 -53 -25.5 l-21 -13 q-54 15 -110.5 15 q-56.5 0 -109.5 -15 q-9 6 -24 15 q-15 9 -47.5 22 q-32.5 13 -48.5 8 q-26 -65 -5 -117 q-45 -49 -45 -117 q0 -49 11.5 -86 q11.5 -37 30 -60 q18.5 -23 46 -38.5 q27.5 -15.5 53.5 -22.5 q26 -7 59 -10 q-22 -21 -28 -59 q-12 -6 -26 -8.5 q-14 -2.5 -32.5 -2.5 q-18.5 0 -37 12 q-18.5 12 -32.5 36 q-10 18 -27 29.5 q-17 11.5 -29 13.5 l-11 2 q-12 0 -16.5 -2.5 q-4.5 -2.5 -3 -6.5 q1.5 -4 5 -8 q3.5 -4 7.5 -7 l4 -3 q13 -6 25 -22 q12 -16 18 -29 l6 -13 q7 -22 25 -35.5 q18 -13.5 38.5 -17 q20.5 -3.5 39.5 -4 q19 -0.5 32 2.5 l13 2 q0 -22 0 -50.5 q0 -28.5 0 -31.5 q0 -10 -7.5 -17 q-7.5 -7 -22.5 -4 q-133 44 -216.5 158.5 q-83.5 114.5 -83.5 258.5 q0 119 59 220 q59 101 159.5 160 ZM166 174 q2 4 -4 7 q-5 2 -7 -1 q-2 -4 4 -7 q5 -3 7 1 ZM184 155 q4 3 -1 9 q-6 5 -9 2 q-4 -3 1 -9 q6 -6 9 -2 ZM201 129 q5 4 0 11 q-4 7 -10 3 q-5 -2 0.5 -9.5 q5.5 -7.5 9.5 -4.5 ZM225 105 q5 5 -2 11 q-7 7 -12 2 q-5 -5 3 -11 q7 -7 11 -2 ZM258 91 q1 6 -8 9 q-8 2 -10.5 -4 q-2.5 -6 7.5 -9 q8 -3 11 4 ZM294 88 q0 7 -10 6 q-9 0 -9 -6 q0 -7 10 -6 q9 0 9 6 ZM327 94 q-1 6 -10 5 q-10 -2 -8.5 -9 q1.5 -7 10.5 -4.5 q9 2.5 8 8.5 Z" /><glyph glyph-name="rss" unicode="&#xf09e;" d="M187 187 q32 -32 32 -77.5 q0 -45.5 -32 -77.5 q-32 -32 -77.5 -32 q-45.5 0 -77.5 32 q-32 32 -32 77.5 q0 45.5 32 77.5 q32 32 77.5 32 q45.5 0 77.5 -32 ZM512 39 q1 -16 -10 -27 q-10 -12 -27 -12 l-77 0 q-14 0 -24.5 9.5 q-10.5 9.5 -11.5 23.5 q-12 131 -105 224 q-93 93 -224 105 q-14 1 -23.5 11.5 q-9.5 10.5 -9.5 24.5 l0 77 q0 17 12 27 q10 10 25 10 l2 0 q92 -7 175.5 -46 q83.5 -39 147.5 -104 q65 -64 104 -147.5 q39 -83.5 46 -175.5 ZM805 38 q1 -15 -11 -27 q-10 -11 -26 -11 l-82 0 q-15 0 -25.5 10 q-10.5 10 -10.5 24 q-7 123 -58 233.5 q-51 110.5 -132.5 192 q-81.5 81.5 -192 132.5 q-110.5 51 -233.5 58 q-14 1 -24 11.5 q-10 10.5 -10 24.5 l0 82 q0 16 11 26 q11 11 26 11 l1 0 q150 -8 287 -69 q137 -61 243 -168 q107 -106 168 -243 q61 -137 69 -287 Z" /><glyph glyph-name="weibo" unicode="&#xf18a;" d="M386 144 q12 19 6 39 q-6 20 -26 29 q-19 8 -41.5 0.5 q-22.5 -7.5 -34.5 -26.5 q-12 -19 -7 -39 q5 -20 24.5 -29 q19.5 -9 42.5 -1 q23 8 36 27 ZM439 213 q5 8 2.5 15.5 q-2.5 7.5 -10.5 10.5 q-8 3 -16 -0.5 q-8 -3.5 -12 -10.5 q-10 -18 7 -26 q8 -3 16.5 0.5 q8.5 3.5 12.5 10.5 ZM539 152 q-26 -58 -90.5 -85.5 q-64.5 -27.5 -127.5 -7.5 q-62 20 -85 73 q-23 53 4 107 q27 53 86.5 79.5 q59.5 26.5 120.5 10.5 q63 -16 90.5 -68 q27.5 -52 1.5 -109 ZM717 243 q-5 55 -50.5 97.5 q-45.5 42.5 -119 62.5 q-73.5 20 -157.5 12 q-127 -13 -211 -81 q-84 -68 -76 -151 q6 -55 51.5 -97.5 q45.5 -42.5 119 -62.5 q73.5 -20 156.5 -12 q128 14 211.5 81.5 q83.5 67.5 75.5 150.5 ZM893 241 q0 -39 -21 -79.5 q-21 -40.5 -62 -78 q-41 -37.5 -96.5 -67.5 q-55.5 -30 -129.5 -47.5 q-74 -17.5 -154.5 -17.5 q-80.5 0 -157 19 q-76.5 19 -137.5 53 q-61 34 -98 86.5 q-37 52.5 -37 113.5 q0 66 39.5 140.5 q39.5 74.5 113.5 147.5 q96 96 194.5 134.5 q98.5 38.5 141.5 -3.5 q37 -37 11 -120 q-2 -8 -0.5 -11.5 q1.5 -3.5 5.5 -4 q4 -0.5 8.5 0.5 q4.5 1 7.5 2 l4 1 q79 34 140 34 q61 0 88 -35 q25 -36 0 -102 q-2 -7 -3 -11 q-1 -4 3 -7 q4 -3 6.5 -4.5 q2.5 -1.5 9.5 -3.5 q33 -10 59 -26.5 q26 -16.5 45.5 -46.5 q19.5 -30 19.5 -67 ZM793 635.5 q34 -10.5 58 -37.5 q24 -27 31 -62 q7 -35 -4 -67 q-4 -14 -16.5 -20 q-12.5 -6 -25.5 -2 q-13 4 -19.5 16.5 q-6.5 12.5 -2.5 25.5 q12 36 -13.5 63.5 q-25.5 27.5 -61.5 20.5 q-13 -3 -25 4.5 q-12 7.5 -15 20.5 q-2 14 5 25.5 q7 11.5 21 14.5 q34 8 68 -2.5 ZM954 691 q50 -55 64.5 -127.5 q14.5 -72.5 -7.5 -137.5 q-5 -16 -19.5 -23.5 q-14.5 -7.5 -30 -2 q-15.5 5.5 -23 19.5 q-7.5 14 -2.5 30 q16 47 5.5 98 q-10.5 51 -45.5 90 q-35 40 -84.5 55 q-49.5 15 -98.5 5 q-16 -4 -30 5 q-14 9 -17.5 25 q-3.5 16 5.5 29.5 q9 13.5 25 16.5 q70 15 139.5 -6.5 q69.5 -21.5 118.5 -76.5 Z" /><glyph glyph-name="google_plus" unicode="&#xf0d5;" d="M821 356 q0 -119 -49.5 -212 q-49.5 -93 -141.5 -145 q-92 -52 -211 -52 q-85 0 -163 33 q-78 33 -134 89 q-56 56 -89 134 q-33 78 -33 163 q0 85 33 162.5 q33 77.5 89 133.5 q56 56 134 89.5 q78 33.5 163 33.5 q163 0 280 -110 l-113 -109 q-67 64 -167 64 q-70 0 -130 -35.5 q-60 -35.5 -95 -96 q-35 -60.5 -35 -132.5 q0 -72 35 -133 q35 -61 95 -96.5 q60 -35.5 130 -35.5 q47 0 87 13 q40 13 65.5 33 q25.5 20 44.5 45 q19 25 28 47.5 q9 22.5 13 42.5 l-238 0 l0 144 l395 0 q7 -36 7 -70 ZM1317 426 l0 -120 l-120 0 l0 -120 l-120 0 l0 120 l-119 0 l0 120 l119 0 l0 119 l120 0 l0 -119 l120 0 Z" /><glyph glyph-name="tag" unicode="&#xf02b;" d="M234.5 570 q21.5 21 21.5 51.5 q0 30.5 -21.5 52 q-21.5 21.5 -51.5 21.5 q-30 0 -51.5 -21.5 q-21.5 -21.5 -21.5 -52 q0 -30.5 21.5 -51.5 q21.5 -21 51.5 -21 q30 0 51.5 21 ZM866 293 q0 -31 -21 -52 l-281 -281 q-22 -21 -52 -21 q-30 0 -51 21 l-409 409 q-22 21 -37 57.5 q-15 36.5 -15 67.5 l0 237 q0 30 21.5 52 q21.5 22 51.5 22 l238 0 q30 0 66.5 -15.5 q36.5 -15.5 58.5 -36.5 l409 -408 q21 -23 21 -52 Z" /><glyph glyph-name="tags" unicode="&#xf02c;" d="M234.5 570 q21.5 21 21.5 51.5 q0 30.5 -21.5 52 q-21.5 21.5 -51.5 21.5 q-30 0 -51.5 -21.5 q-21.5 -21.5 -21.5 -52 q0 -30.5 21.5 -51.5 q21.5 -21 51.5 -21 q30 0 51.5 21 ZM866 293 q0 -31 -21 -52 l-281 -281 q-22 -21 -52 -21 q-30 0 -51 21 l-409 409 q-22 21 -37 57.5 q-15 36.5 -15 67.5 l0 237 q0 30 21.5 52 q21.5 22 51.5 22 l238 0 q30 0 66.5 -15.5 q36.5 -15.5 58.5 -36.5 l409 -408 q21 -23 21 -52 ZM1085 293 q0 -31 -21 -52 l-281 -281 q-22 -21 -52 -21 q-20 0 -33 8 q-13 8 -31 26 l269 268 q21 21 21 52 q0 29 -21 52 l-409 408 q-21 21 -57.5 36.5 q-36.5 15.5 -67.5 15.5 l128 0 q31 0 67.5 -15.5 q36.5 -15.5 57.5 -36.5 l409 -408 q21 -23 21 -52 Z" /><glyph glyph-name="book" unicode="&#xf02d;" d="M937 605 q22 -33 10 -74 l-157 -518 q-11 -36 -44 -61 q-33 -25 -70 -25 l-527 0 q-44 0 -85 30.5 q-41 30.5 -57 75.5 q-14 38 -1 72 q0 2 1.5 15.5 q1.5 13.5 2.5 21.5 q0 4 -2 12 q-2 8 -2 11 q1 6 4.5 12 q3.5 6 9.5 13.5 q6 7.5 10 13.5 q13 22 25.5 52.5 q12.5 30.5 17.5 52.5 q1 5 -0.5 16.5 q-1.5 11.5 0.5 16.5 q1 6 9 15.5 q8 9.5 10 13.5 q12 20 24 52 q12 32 14 52 q1 5 -1 18 q-2 13 0 16 q2 8 12.5 18 q10.5 10 12.5 12 q11 15 24.5 48.5 q13.5 33.5 15.5 55.5 q1 4 -1.5 14 q-2.5 10 -1.5 16 q2 4 6 10 q4 6 10 13 q6 7 10 12 q4 7 9 17.5 q5 10.5 8.5 20 q3.5 9.5 9 20.5 q5.5 11 11.5 18 q6 7 15 13.5 q9 6.5 20.5 7 q11.5 0.5 27.5 -3.5 l-1 -2 q22 6 29 6 l435 0 q42 0 65 -32 q23 -32 11 -75 l-157 -517 q-21 -68 -41 -88 q-20 -20 -73 -20 l-497 0 q-15 0 -22 -8 q-6 -10 0 -25 q14 -40 82 -40 l528 0 q16 0 31.5 9 q15.5 9 20.5 24 l171 564 q4 12 3 32 q22 -8 34 -24 ZM329 603 q-3 -7 0.5 -12.5 q3.5 -5.5 11.5 -5.5 l348 0 q7 0 14 5.5 q7 5.5 10 12.5 l12 37 q2 7 -1.5 12.5 q-3.5 5.5 -11.5 5.5 l-347 0 q-8 0 -15 -5.5 q-7 -5.5 -9 -12.5 l-12 -37 ZM281 457 q-2 -7 1.5 -12.5 q3.5 -5.5 11.5 -5.5 l347 0 q8 0 15 5.5 q7 5.5 9 12.5 l12 37 q2 7 -1 12.5 q-3 5.5 -11 5.5 l-348 0 q-7 0 -14.5 -5.5 q-7.5 -5.5 -9.5 -12.5 l-12 -37 Z" /><glyph glyph-name="calendar" unicode="&#xf073;" d="M73 -73 l165 0 l0 164 l-165 0 l0 -164 ZM274 -73 l183 0 l0 164 l-183 0 l0 -164 ZM73 128 l165 0 l0 183 l-165 0 l0 -183 ZM274 128 l183 0 l0 183 l-183 0 l0 -183 ZM73 347 l165 0 l0 165 l-165 0 l0 -165 ZM494 -73 l183 0 l0 164 l-183 0 l0 -164 ZM274 347 l183 0 l0 165 l-183 0 l0 -165 ZM713 -73 l165 0 l0 164 l-165 0 l0 -164 ZM494 128 l183 0 l0 183 l-183 0 l0 -183 ZM293 622 l0 164 q0 8 -5.5 13.5 q-5.5 5.5 -13.5 5.5 l-36 0 q-8 0 -13.5 -5.5 q-5.5 -5.5 -5.5 -13.5 l0 -164 q0 -8 5.5 -13.5 q5.5 -5.5 13.5 -5.5 l36 0 q8 0 13.5 5.5 q5.5 5.5 5.5 13.5 ZM713 128 l165 0 l0 183 l-165 0 l0 -183 ZM494 347 l183 0 l0 165 l-183 0 l0 -165 ZM713 347 l165 0 l0 165 l-165 0 l0 -165 ZM731 622 l0 164 q0 8 -5 13.5 q-5 5.5 -13 5.5 l-36 0 q-8 0 -13.5 -5.5 q-5.5 -5.5 -5.5 -13.5 l0 -164 q0 -8 5.5 -13.5 q5.5 -5.5 13.5 -5.5 l36 0 q8 0 13 5.5 q5 5.5 5 13.5 ZM951 658 l0 -731 q0 -30 -22 -51.5 q-22 -21.5 -51 -21.5 l-805 0 q-30 0 -51.5 21.5 q-21.5 21.5 -21.5 51.5 l0 731 q0 30 21.5 51.5 q21.5 21.5 51.5 21.5 l73 0 l0 55 q0 38 27 65 q27 27 65 27 l36 0 q38 0 65 -27 q27 -27 27 -65 l0 -55 l219 0 l0 55 q0 38 27 65 q27 27 65 27 l36 0 q38 0 65 -27 q27 -27 27 -65 l0 -55 l73 0 q29 0 51 -21.5 q22 -21.5 22 -51.5 Z" /><glyph glyph-name="file_text" unicode="&#xf15c;" d="M839 606 q8 -8 16 -21 l-270 0 l0 270 q13 -8 21 -16 l233 -233 ZM567 512 l311 0 l0 -603 q0 -23 -16 -39 q-16 -16 -39 -16 l-768 0 q-23 0 -39 16 q-16 16 -16 39 l0 914 q0 23 16 39 q16 16 39 16 l457 0 l0 -311 q0 -23 16 -39 q16 -16 39 -16 ZM658 91 l0 37 q0 8 -5 13 q-5 5 -13 5 l-402 0 q-8 0 -13.5 -5 q-5.5 -5 -5.5 -13 l0 -37 q0 -8 5.5 -13 q5.5 -5 13.5 -5 l402 0 q8 0 13 5 q5 5 5 13 ZM658 238 l0 36 q0 8 -5 13.5 q-5 5.5 -13 5.5 l-402 0 q-8 0 -13.5 -5.5 q-5.5 -5.5 -5.5 -13.5 l0 -36 q0 -8 5.5 -13.5 q5.5 -5.5 13.5 -5.5 l402 0 q8 0 13 5.5 q5 5.5 5 13.5 ZM658 384 l0 37 q0 8 -5 13 q-5 5 -13 5 l-402 0 q-8 0 -13.5 -5 q-5.5 -5 -5.5 -13 l0 -37 q0 -8 5.5 -13 q5.5 -5 13.5 -5 l402 0 q8 0 13 5 q5 5 5 13 Z" /><glyph glyph-name="file_text_alt" unicode="&#xf0f6;" d="M839 661 q16 -16 27.5 -43.5 q11.5 -27.5 11.5 -50.5 l0 -658 q0 -23 -16 -39 q-16 -16 -39 -16 l-768 0 q-23 0 -39 16 q-16 16 -16 39 l0 914 q0 23 16 39 q16 16 39 16 l512 0 q23 0 50.5 -11.5 q27.5 -11.5 43.5 -27.5 l178 -178 ZM585 800 l0 -215 l215 0 q-6 17 -13 24 l-178 178 q-7 7 -24 13 ZM805 -73 l0 585 l-238 0 q-23 0 -39 16 q-16 16 -16 39 l0 238 l-439 0 l0 -878 l732 0 ZM219 421 q0 8 5.5 13 q5.5 5 13.5 5 l402 0 q8 0 13 -5 q5 -5 5 -13 l0 -37 q0 -8 -5 -13 q-5 -5 -13 -5 l-402 0 q-8 0 -13.5 5 q-5.5 5 -5.5 13 l0 37 ZM640 293 q8 0 13 -5.5 q5 -5.5 5 -13.5 l0 -36 q0 -8 -5 -13.5 q-5 -5.5 -13 -5.5 l-402 0 q-8 0 -13.5 5.5 q-5.5 5.5 -5.5 13.5 l0 36 q0 8 5.5 13.5 q5.5 5.5 13.5 5.5 l402 0 ZM640 146 q8 0 13 -5 q5 -5 5 -13 l0 -37 q0 -8 -5 -13 q-5 -5 -13 -5 l-402 0 q-8 0 -13.5 5 q-5.5 5 -5.5 13 l0 37 q0 8 5.5 13 q5.5 5 13.5 5 l402 0 Z" /><glyph glyph-name="time" unicode="&#xf017;" d="M512 567 l0 -256 q0 -8 -5 -13 q-5 -5 -13 -5 l-183 0 q-8 0 -13 5 q-5 5 -5 13 l0 36 q0 8 5 13.5 q5 5.5 13 5.5 l128 0 l0 201 q0 8 5 13 q5 5 13 5 l37 0 q8 0 13 -5 q5 -5 5 -13 ZM708 209.5 q42 71.5 42 156 q0 84.5 -42 156 q-42 71.5 -113.5 113.5 q-71.5 42 -156 42 q-84.5 0 -156 -42 q-71.5 -42 -113 -113.5 q-41.5 -71.5 -41.5 -156 q0 -84.5 41.5 -156 q41.5 -71.5 113 -113 q71.5 -41.5 156 -41.5 q84.5 0 156 41.5 q71.5 41.5 113.5 113 ZM819 586 q59 -101 59 -220.5 q0 -119.5 -59 -220 q-59 -100.5 -160 -159.5 q-101 -59 -220.5 -59 q-119.5 0 -220 59 q-100.5 59 -159.5 159.5 q-59 100.5 -59 220 q0 119.5 59 220.5 q59 101 159.5 160 q100.5 59 220 59 q119.5 0 220.5 -59 q101 -59 160 -160 Z" /><glyph glyph-name="eye_open" unicode="&#xf06e;" d="M951 329 q-87 135 -218 202 q35 -60 35 -129 q0 -105 -75 -180.5 q-75 -75.5 -181 -75.5 q-106 0 -181 75.5 q-75 75.5 -75 180.5 q0 69 35 129 q-131 -67 -218 -202 q76 -117 190.5 -186.5 q114.5 -69.5 248.5 -69.5 q134 0 248.5 69.5 q114.5 69.5 190.5 186.5 ZM531 529 q8 8 8 19.5 q0 11.5 -8 19.5 q-8 8 -19 8 q-71 0 -122.5 -51 q-51.5 -51 -51.5 -123 q0 -11 8 -19 q8 -8 19.5 -8 q11.5 0 19.5 8 q8 8 8 19 q0 49 35 84 q35 35 84 35 q11 0 19 8 ZM1013 369 q11 -20 11 -39.5 q0 -19.5 -11 -39.5 q-80 -132 -215.5 -211 q-135.5 -79 -285.5 -79 q-150 0 -285.5 79.5 q-135.5 79.5 -215.5 210.5 q-11 20 -11 39.5 q0 19.5 11 39.5 q80 130 215.5 209.5 q135.5 79.5 285.5 79.5 q150 0 285.5 -79.5 q135.5 -79.5 215.5 -209.5 Z" /><glyph glyph-name="camera" unicode="&#xf030;" d="M432.5 445.5 q48.5 48.5 116.5 48.5 q68 0 116 -48.5 q48 -48.5 48 -116.5 q0 -68 -48 -116 q-48 -48 -116 -48 q-68 0 -116.5 48 q-48.5 48 -48.5 116 q0 68 48.5 116.5 ZM951 731 q60 0 103 -42.5 q43 -42.5 43 -103.5 l0 -512 q0 -60 -43 -103 q-43 -43 -103 -43 l-805 0 q-60 0 -103 43 q-43 43 -43 103 l0 512 q0 61 43 103.5 q43 42.5 103 42.5 l128 0 l29 78 q11 28 40 48.5 q29 20.5 59 20.5 l293 0 q30 0 59 -20.5 q29 -20.5 40 -48.5 l29 -78 l128 0 ZM368 148 q75 -75 180.5 -75 q105.5 0 181 75 q75.5 75 75.5 181 q0 106 -75.5 181 q-75.5 75 -181 75 q-105.5 0 -180.5 -75 q-75 -75 -75 -181 q0 -106 75 -181 Z" /><glyph glyph-name="comment" unicode="&#xf075;" d="M955.5 549.5 q68.5 -84.5 68.5 -184 q0 -99.5 -68.5 -183.5 q-68.5 -84 -186.5 -133 q-118 -49 -257 -49 q-40 0 -83 5 q-113 -100 -263 -139 q-28 -8 -65 -12 q-10 -1 -17.5 5 q-7.5 6 -9.5 16 l0 1 q-2 2 -0.5 6.5 q1.5 4.5 1 6 q-0.5 1.5 2.5 5.5 q3 4 3.5 5 q0.5 1 4 5 q3.5 4 4.5 5 q4 5 18 20 q14 15 20 21.5 q6 6.5 17.5 22.5 q11.5 16 18.5 29 q7 13 15.5 34 q8.5 21 14.5 43 q-90 51 -141.5 126 q-51.5 75 -51.5 161 q0 74 40.5 141.5 q40.5 67.5 109 117 q68.5 49.5 163.5 78 q95 28.5 199 28.5 q139 0 257 -48.5 q118 -48.5 186.5 -133 Z" /><glyph glyph-name="comment_alt" unicode="&#xf0e5;" d="M730 618.5 q-101 39.5 -218 39.5 q-117 0 -218 -39.5 q-101 -39.5 -161 -107 q-60 -67.5 -60 -145.5 q0 -64 41 -122 q41 -58 115 -101 l50 -28 l-16 -55 q-13 -52 -40 -98 q87 36 158 97 l24 22 l33 -3 q39 -5 74 -5 q117 0 218 40 q101 40 161 107 q60 67 60 145.5 q0 78.5 -60 146 q-60 67.5 -161 107 ZM955.5 549.5 q68.5 -84.5 68.5 -184 q0 -99.5 -68.5 -183.5 q-68.5 -84 -186.5 -133 q-118 -49 -257 -49 q-40 0 -83 5 q-113 -100 -263 -139 q-28 -8 -65 -12 l-3 0 q-8 0 -15 6 q-7 6 -9 15 l0 1 q-2 2 -0.5 6.5 q1.5 4.5 1 6 q-0.5 1.5 2.5 5.5 q3 4 3.5 5 q0.5 1 4 5 q3.5 4 4.5 5 q4 5 18 20 q14 15 20 21.5 q6 6.5 17.5 22.5 q11.5 16 18.5 29 q7 13 15.5 34 q8.5 21 14.5 43 q-90 51 -141.5 126 q-51.5 75 -51.5 161 q0 99 68.5 183.5 q68.5 84.5 186.5 133 q118 48.5 257 48.5 q139 0 257 -48.5 q118 -48.5 186.5 -133 Z" /><glyph glyph-name="_279" unicode="&#xf129;" d="M366 110 l0 -73 q0 -15 -11 -26 q-11 -11 -26 -11 l-292 0 q-15 0 -26 11 q-11 11 -11 26 l0 73 q0 15 11 25.5 q11 10.5 26 10.5 l36 0 l0 220 l-36 0 q-15 0 -26 10.5 q-11 10.5 -11 25.5 l0 73 q0 15 11 26 q11 11 26 11 l219 0 q15 0 26 -11 q11 -11 11 -26 l0 -329 l36 0 q15 0 26 -10.5 q11 -10.5 11 -25.5 ZM293 768 l0 -110 q0 -15 -11 -25.5 q-11 -10.5 -26 -10.5 l-146 0 q-15 0 -26 10.5 q-11 10.5 -11 25.5 l0 110 q0 15 11 26 q11 11 26 11 l146 0 q15 0 26 -11 q11 -11 11 -26 Z" /><glyph glyph-name="info_sign" unicode="&#xf05a;" d="M585 91 l0 92 q0 8 -5 13 q-5 5 -13 5 l-55 0 l0 293 q0 8 -5 13 q-5 5 -13 5 l-183 0 q-8 0 -13 -5 q-5 -5 -5 -13 l0 -92 q0 -8 5 -13 q5 -5 13 -5 l55 0 l0 -183 l-55 0 q-8 0 -13 -5 q-5 -5 -5 -13 l0 -92 q0 -8 5 -13 q5 -5 13 -5 l256 0 q8 0 13 5 q5 5 5 13 ZM512 603 l0 92 q0 8 -5 13 q-5 5 -13 5 l-110 0 q-8 0 -13 -5 q-5 -5 -5 -13 l0 -92 q0 -8 5 -13 q5 -5 13 -5 l110 0 q8 0 13 5 q5 5 5 13 ZM819 586 q59 -101 59 -220.5 q0 -119.5 -59 -220 q-59 -100.5 -160 -159.5 q-101 -59 -220.5 -59 q-119.5 0 -220 59 q-100.5 59 -159.5 159.5 q-59 100.5 -59 220 q0 119.5 59 220.5 q59 101 159.5 160 q100.5 59 220 59 q119.5 0 220.5 -59 q101 -59 160 -160 Z" /><glyph glyph-name="uniF1D6" unicode="&#xf1d6;" d="M154 417 q-4 11 -4 30 q0 11 6 27.5 q6 16.5 14 26.5 q-1 12 4 30 q5 18 13 24 q0 80 53 165.5 q53 85.5 124 119.5 q79 38 185 38 q76 0 152 -32 q28 -12 51.5 -27.5 q23.5 -15.5 40.5 -32 q17 -16.5 31.5 -38.5 q14.5 -22 24 -42 q9.5 -20 18.5 -48.5 q9 -28.5 14.5 -51.5 q5.5 -23 12.5 -56 l1 -3 q31 -47 31 -85 q0 -8 -5 -23 q-5 -15 -5 -22 q0 0 1 -1.5 q1 -1.5 2 -3 q1 -1.5 1 -2.5 q44 -65 69 -122.5 q25 -57.5 25 -118.5 q0 -25 -11.5 -57.5 q-11.5 -32.5 -31.5 -32.5 q-5 0 -11 4 q-6 4 -11 10 q-5 6 -11 15 q-6 9 -9 15 q-3 6 -7.5 15 q-4.5 9 -5.5 10 q-1 1 -2 1 l-3 -3 q-33 -88 -75 -127 q11 -12 35 -22.5 q24 -10.5 39.5 -23.5 q15.5 -13 20.5 -37 q-1 -2 -2.5 -9 q-1.5 -7 -3.5 -10 q-37 -56 -173 -56 q-30 0 -63 5 q-33 5 -56 11.5 q-23 6.5 -60 17.5 q-8 3 -13 4 q-8 2 -26.5 2.5 q-18.5 0.5 -22.5 0.5 q-24 -25 -73 -36.5 q-49 -11.5 -96 -11.5 q-20 0 -39.5 0.5 q-19.5 0.5 -53.5 5 q-34 4.5 -58 12 q-24 7.5 -42.5 23 q-18.5 15.5 -18.5 36.5 q0 23 6 34 q6 11 23 28 q7 1 23.5 7 q16.5 6 28.5 7 q2 0 8 1 q1 1 1 2 l-1 2 q-28 6 -62 60 q-34 54 -42 90 l-2 1 q-3 0 -7 -11 q-11 -23 -31.5 -42.5 q-20.5 -19.5 -44.5 -21.5 l0 0 q-3 0 -4 2.5 q-1 2.5 -3 3.5 q-13 31 -13 57 q0 157 144 266 Z" /><glyph glyph-name="uniF1D7" unicode="&#xf1d7;" d="M317 577 q14 14 14 37.5 q0 23.5 -14 37.5 q-14 14 -38 14 q-24 0 -43 -14.5 q-19 -14.5 -19 -37.5 q0 -22 19 -36.5 q19 -14.5 43 -14.5 q24 0 38 14 ZM756 325 q0 16 -14.5 28.5 q-14.5 12.5 -37.5 12.5 q-15 0 -28 -13 q-13 -13 -13 -28 q0 -16 13 -29 q13 -13 28 -13 q23 0 37.5 12.5 q14.5 12.5 14.5 29.5 ZM607 577 q14 14 14 37.5 q0 23.5 -14 37.5 q-14 14 -37 14 q-25 0 -44 -14.5 q-19 -14.5 -19 -37.5 q0 -22 19 -36.5 q19 -14.5 44 -14.5 q23 0 37 14 ZM984 325 q0 16 -15 28.5 q-15 12.5 -37 12.5 q-15 0 -28 -13 q-13 -13 -13 -28 q0 -16 13 -29 q13 -13 28 -13 q22 0 37 12.5 q15 12.5 15 29.5 ZM832 551 q-18 3 -40 3 q-97 0 -178 -44 q-81 -44 -127.5 -119.5 q-46.5 -75.5 -46.5 -164.5 q0 -44 13 -87 q-20 -1 -39 -1 q-15 0 -28.5 0.5 q-13.5 0.5 -31 3.5 q-17.5 3 -25.5 4 q-8 1 -31.5 6 q-23.5 5 -28.5 6 l-144 -72 l41 124 q-166 116 -166 280 q0 97 55.5 178 q55.5 81 151 127.5 q95.5 46.5 207.5 46.5 q101 0 190.5 -37.5 q89.5 -37.5 149.5 -104 q60 -66.5 78 -149.5 ZM1170 231 q0 -67 -39 -128 q-39 -61 -106 -110 l32 -104 l-114 62 q-86 -21 -125 -21 q-96 0 -177.5 40.5 q-81.5 40.5 -128 109.5 q-46.5 69 -46.5 151 q0 82 46.5 151 q46.5 69 128 109 q81.5 40 177.5 40 q92 0 173.5 -40 q81.5 -40 130 -109.5 q48.5 -69.5 48.5 -150.5 Z" /><glyph glyph-name="spinner" unicode="&#xf110;" d="M279.5 132.5 q21.5 -21.5 21.5 -51.5 q0 -30 -21.5 -51.5 q-21.5 -21.5 -52.5 -21.5 q-29 0 -51 21.5 q-22 21.5 -22 51.5 q0 30 21.5 51.5 q21.5 21.5 52 21.5 q30.5 0 52 -21.5 ZM563.5 15.5 q21.5 -21.5 21.5 -52 q0 -30.5 -21.5 -52 q-21.5 -21.5 -51.5 -21.5 q-30 0 -51.5 21.5 q-21.5 21.5 -21.5 52 q0 30.5 21.5 52 q21.5 21.5 51.5 21.5 q30 0 51.5 -21.5 ZM161.5 417.5 q21.5 -21.5 21.5 -52 q0 -30.5 -21.5 -51.5 q-21.5 -21 -52 -21 q-30.5 0 -51.5 21 q-21 21 -21 51.5 q0 30.5 21 52 q21 21.5 51.5 21.5 q30.5 0 52 -21.5 ZM870 81 q0 -30 -22 -51.5 q-22 -21.5 -51 -21.5 q-31 0 -52.5 21.5 q-21.5 21.5 -21.5 51.5 q0 30 21.5 51.5 q21.5 21.5 52 21.5 q30.5 0 52 -21.5 q21.5 -21.5 21.5 -51.5 ZM292 715 q27 -27 27 -64.5 q0 -37.5 -27 -64.5 q-27 -27 -64.5 -27 q-37.5 0 -64.5 27 q-27 27 -27 64.5 q0 37.5 27 64.5 q27 27 64.5 27 q37.5 0 64.5 -27 ZM966 417.5 q21 -21.5 21 -52 q0 -30.5 -21 -51.5 q-21 -21 -51.5 -21 q-30.5 0 -52 21 q-21.5 21 -21.5 51.5 q0 30.5 21.5 52 q21.5 21.5 52 21.5 q30.5 0 51.5 -21.5 ZM590 846 q32 -32 32 -78 q0 -46 -32 -78 q-32 -32 -78 -32 q-46 0 -78 32 q-32 32 -32 78 q0 46 32 78 q32 32 78 32 q46 0 78 -32 ZM925 650 q0 -53 -38 -90.5 q-38 -37.5 -90 -37.5 q-54 0 -91 37.5 q-37 37.5 -37 90.5 q0 53 37 90.5 q37 37.5 91 37.5 q52 0 90 -37.5 q38 -37.5 38 -90.5 Z" /><glyph glyph-name="arrow_circle_alt_left" unicode="&#xf190;" d="M658 421 l0 -110 q0 -8 -5.5 -13 q-5.5 -5 -12.5 -5 l-201 0 l0 -110 q0 -8 -5 -13 q-5 -5 -13 -5 q-7 0 -14 5 l-182 183 q-6 5 -6 13 q0 8 6 13 l182 183 q6 5 14 5 q7 0 12.5 -5.5 q5.5 -5.5 5.5 -12.5 l0 -110 l201 0 q7 0 12.5 -5.5 q5.5 -5.5 5.5 -12.5 ZM708 209.5 q42 71.5 42 156 q0 84.5 -42 156 q-42 71.5 -113.5 113.5 q-71.5 42 -156 42 q-84.5 0 -156 -42 q-71.5 -42 -113 -113.5 q-41.5 -71.5 -41.5 -156 q0 -84.5 41.5 -156 q41.5 -71.5 113 -113 q71.5 -41.5 156 -41.5 q84.5 0 156 41.5 q71.5 41.5 113.5 113 ZM819 586 q59 -101 59 -220.5 q0 -119.5 -59 -220 q-59 -100.5 -160 -159.5 q-101 -59 -220.5 -59 q-119.5 0 -220 59 q-100.5 59 -159.5 159.5 q-59 100.5 -59 220 q0 119.5 59 220.5 q59 101 159.5 160 q100.5 59 220 59 q119.5 0 220.5 -59 q101 -59 160 -160 Z" /><glyph glyph-name="_374" unicode="&#xf18e;" d="M653 379 q5 -5 5 -13 q0 -8 -5 -13 l-183 -183 q-5 -5 -13 -5 q-7 0 -12.5 5 q-5.5 5 -5.5 13 l0 110 l-201 0 q-8 0 -13.5 5 q-5.5 5 -5.5 13 l0 110 q0 7 5.5 12.5 q5.5 5.5 13.5 5.5 l201 0 l0 110 q0 8 5 13 q5 5 13 5 q7 0 14 -6 l182 -182 ZM708 209.5 q42 71.5 42 156 q0 84.5 -42 156 q-42 71.5 -113.5 113.5 q-71.5 42 -156 42 q-84.5 0 -156 -42 q-71.5 -42 -113 -113.5 q-41.5 -71.5 -41.5 -156 q0 -84.5 41.5 -156 q41.5 -71.5 113 -113 q71.5 -41.5 156 -41.5 q84.5 0 156 41.5 q71.5 41.5 113.5 113 ZM819 586 q59 -101 59 -220.5 q0 -119.5 -59 -220 q-59 -100.5 -160 -159.5 q-101 -59 -220.5 -59 q-119.5 0 -220 59 q-100.5 59 -159.5 159.5 q-59 100.5 -59 220 q0 119.5 59 220.5 q59 101 159.5 160 q100.5 59 220 59 q119.5 0 220.5 -59 q101 -59 160 -160 Z" /><glyph glyph-name="uniF1E0" unicode="&#xf1e0;" d="M695 293 q76 0 129.5 -53.5 q53.5 -53.5 53.5 -129.5 q0 -76 -53.5 -129.5 q-53.5 -53.5 -129.5 -53.5 q-76 0 -129.5 53.5 q-53.5 53.5 -53.5 129.5 q0 7 1 19 l-206 103 q-52 -49 -124 -49 q-76 0 -129.5 53.5 q-53.5 53.5 -53.5 129.5 q0 76 53.5 129.5 q53.5 53.5 129.5 53.5 q72 0 124 -50 l206 103 q-1 13 -1 20 q0 76 53.5 129.5 q53.5 53.5 129.5 53.5 q76 0 129.5 -53.5 q53.5 -53.5 53.5 -129.5 q0 -76 -53.5 -129.5 q-53.5 -53.5 -129.5 -53.5 q-72 0 -125 49 l-205 -103 q1 -12 1 -19 q0 -7 -1 -20 l205 -103 q53 50 125 50 Z" /><glyph glyph-name="_451" unicode="&#xf1e1;" d="M695.5 109 q35.5 36 35.5 86 q0 50 -35.5 86 q-35.5 36 -85.5 36 q-48 0 -83 -33 l-138 69 q1 9 1 13 q0 4 -1 13 l138 68 q35 -33 83 -33 q50 0 85.5 36 q35.5 36 35.5 86.5 q0 50.5 -35.5 86 q-35.5 35.5 -86 35.5 q-50.5 0 -86.5 -35.5 q-36 -35.5 -36 -85.5 q0 -4 2 -14 l-138 -68 q-36 32 -83 32 q-50 0 -86 -35.5 q-36 -35.5 -36 -86 q0 -50.5 36 -86 q36 -35.5 86 -35.5 q47 0 83 33 l138 -69 q-2 -9 -2 -13 q0 -50 36 -86 q36 -36 86.5 -36 q50.5 0 86 36 ZM878 640 l0 -549 q0 -68 -48.5 -116 q-48.5 -48 -116.5 -48 l-548 0 q-68 0 -116.5 48 q-48.5 48 -48.5 116 l0 549 q0 68 48.5 116.5 q48.5 48.5 116.5 48.5 l548 0 q68 0 116.5 -48.5 q48.5 -48.5 48.5 -116.5 Z" /><glyph glyph-name="list" unicode="&#xf03a;" d="M146 128 l0 -110 q0 -7 -5.5 -12.5 q-5.5 -5.5 -12.5 -5.5 l-110 0 q-7 0 -12.5 5.5 q-5.5 5.5 -5.5 12.5 l0 110 q0 7 5.5 12.5 q5.5 5.5 12.5 5.5 l110 0 q7 0 12.5 -5.5 q5.5 -5.5 5.5 -12.5 ZM146 347 l0 -109 q0 -8 -5.5 -13.5 q-5.5 -5.5 -12.5 -5.5 l-110 0 q-7 0 -12.5 5.5 q-5.5 5.5 -5.5 13.5 l0 109 q0 8 5.5 13.5 q5.5 5.5 12.5 5.5 l110 0 q7 0 12.5 -5.5 q5.5 -5.5 5.5 -13.5 ZM146 567 l0 -110 q0 -7 -5.5 -12.5 q-5.5 -5.5 -12.5 -5.5 l-110 0 q-7 0 -12.5 5.5 q-5.5 5.5 -5.5 12.5 l0 110 q0 7 5.5 12.5 q5.5 5.5 12.5 5.5 l110 0 q7 0 12.5 -5.5 q5.5 -5.5 5.5 -12.5 ZM1024 128 l0 -110 q0 -7 -5.5 -12.5 q-5.5 -5.5 -12.5 -5.5 l-768 0 q-8 0 -13.5 5.5 q-5.5 5.5 -5.5 12.5 l0 110 q0 7 5.5 12.5 q5.5 5.5 13.5 5.5 l768 0 q7 0 12.5 -5.5 q5.5 -5.5 5.5 -12.5 ZM146 786 l0 -109 q0 -8 -5.5 -13.5 q-5.5 -5.5 -12.5 -5.5 l-110 0 q-7 0 -12.5 5.5 q-5.5 5.5 -5.5 13.5 l0 109 q0 8 5.5 13.5 q5.5 5.5 12.5 5.5 l110 0 q7 0 12.5 -5.5 q5.5 -5.5 5.5 -13.5 ZM1024 347 l0 -109 q0 -8 -5.5 -13.5 q-5.5 -5.5 -12.5 -5.5 l-768 0 q-8 0 -13.5 5.5 q-5.5 5.5 -5.5 13.5 l0 109 q0 8 5.5 13.5 q5.5 5.5 13.5 5.5 l768 0 q7 0 12.5 -5.5 q5.5 -5.5 5.5 -13.5 ZM1024 567 l0 -110 q0 -7 -5.5 -12.5 q-5.5 -5.5 -12.5 -5.5 l-768 0 q-8 0 -13.5 5.5 q-5.5 5.5 -5.5 12.5 l0 110 q0 7 5.5 12.5 q5.5 5.5 13.5 5.5 l768 0 q7 0 12.5 -5.5 q5.5 -5.5 5.5 -12.5 ZM1024 786 l0 -109 q0 -8 -5.5 -13.5 q-5.5 -5.5 -12.5 -5.5 l-768 0 q-8 0 -13.5 5.5 q-5.5 5.5 -5.5 13.5 l0 109 q0 8 5.5 13.5 q5.5 5.5 13.5 5.5 l768 0 q7 0 12.5 -5.5 q5.5 -5.5 5.5 -13.5 Z" /><glyph glyph-name="envelope_alt" unicode="&#xf0e0;" d="M1024 472 l0 -454 q0 -37 -27 -64 q-27 -27 -64 -27 l-842 0 q-37 0 -64 27 q-27 27 -27 64 l0 454 q25 -28 58 -50 q207 -140 284 -197 q32 -24 52.5 -37.5 q20.5 -13.5 54 -27.5 q33.5 -14 62.5 -14 l1 0 l1 0 q29 0 62.5 14 q33.5 14 54 27.5 q20.5 13.5 52.5 37.5 q97 70 285 197 q32 23 57 50 ZM1024 640 q0 -45 -28 -86 q-28 -41 -70 -71 q-215 -149 -267 -185 q-6 -4 -24.5 -17.5 q-18.5 -13.5 -31 -22 q-12.5 -8.5 -29.5 -18.5 q-17 -10 -32.5 -15.5 q-15.5 -5.5 -28.5 -5.5 l-1 0 l-1 0 q-13 0 -28.5 5.5 q-15.5 5.5 -32.5 15.5 q-17 10 -29.5 18.5 q-12.5 8.5 -31 22 q-18.5 13.5 -24.5 17.5 q-52 36 -149.5 104 q-97.5 68 -117.5 81 q-35 24 -66.5 66 q-31.5 42 -31.5 78 q0 45 23.5 74.5 q23.5 29.5 67.5 29.5 l842 0 q37 0 64 -26.5 q27 -26.5 27 -64.5 Z" /><glyph glyph-name="envelope" unicode="&#xf003;" d="M951 18 l0 439 q-18 -20 -40 -38 q-153 -117 -243 -193 q-29 -24 -47.5 -38 q-18.5 -14 -49.5 -28 q-31 -14 -58 -14 l-1 0 l-1 0 q-27 0 -58 14 q-31 14 -49.5 28 q-18.5 14 -47.5 38 q-90 76 -243 193 q-22 18 -40 38 l0 -439 q0 -7 5.5 -12.5 q5.5 -5.5 12.5 -5.5 l842 0 q7 0 12.5 5.5 q5.5 5.5 5.5 12.5 ZM951 619 q0 1 0 6 q0 5 0 7.5 q0 2.5 -0.5 7.5 q-0.5 5 -2 7.5 q-1.5 2.5 -3 5 q-1.5 2.5 -5 4 q-3.5 1.5 -7.5 1.5 l-842 0 q-7 0 -12.5 -5.5 q-5.5 -5.5 -5.5 -12.5 q0 -96 84 -162 q110 -87 229 -181 q4 -3 20.5 -17 q16.5 -14 26 -21.5 q9.5 -7.5 25.5 -18 q16 -10.5 29 -16 q13 -5.5 24 -5.5 l1 0 l1 0 q11 0 24 5.5 q13 5.5 29 16 q16 10.5 25.5 18 q9.5 7.5 26 21.5 q16.5 14 20.5 17 q119 94 229 181 q31 24 57.5 65.5 q26.5 41.5 26.5 75.5 ZM1024 640 l0 -622 q0 -37 -27 -64 q-27 -27 -64 -27 l-842 0 q-37 0 -64 27 q-27 27 -27 64 l0 622 q0 38 27 64.5 q27 26.5 64 26.5 l842 0 q37 0 64 -26.5 q27 -26.5 27 -64.5 Z" /><glyph glyph-name="chevron_up" unicode="&#xf077;" d="M962 117 l-95 -94 q-11 -11 -26 -11 q-15 0 -26 11 l-303 303 l-303 -303 q-11 -11 -26 -11 q-15 0 -26 11 l-95 94 q-11 11 -11 26 q0 15 11 26 l424 424 q11 10 26 10 q15 0 26 -10 l424 -424 q11 -11 11 -26 q0 -15 -11 -26 Z" /><glyph glyph-name="pushpin" unicode="&#xf08d;" d="M274 384 l0 256 q0 8 -5 13 q-5 5 -13 5 q-8 0 -13 -5 q-5 -5 -5 -13 l0 -256 q0 -8 5 -13 q5 -5 13 -5 q8 0 13 5 q5 5 5 13 ZM658 183 q0 -15 -10.5 -26 q-10.5 -11 -25.5 -11 l-245 0 l-30 -276 q-1 -7 -5.5 -11.5 q-4.5 -4.5 -11.5 -4.5 l-1 0 q-15 0 -18 15 l-44 277 l-230 0 q-15 0 -26 11 q-11 11 -11 26 q0 70 45 126.5 q45 56.5 101 56.5 l0 292 q-29 0 -51 22 q-22 22 -22 51.5 q0 29.5 22 51.5 q22 22 51 22 l366 0 q30 0 51.5 -22 q21.5 -22 21.5 -51.5 q0 -29.5 -21.5 -51.5 q-21.5 -22 -51.5 -22 l0 -292 q57 0 101.5 -56.5 q44.5 -56.5 44.5 -126.5 Z" /><glyph glyph-name="quote_left" unicode="&#xf10d;" d="M439 329 l0 -219 q0 -46 -32 -78 q-32 -32 -78 -32 l-219 0 q-46 0 -78 32 q-32 32 -32 78 l0 402 q0 59 23 113 q23 54 62.5 93.5 q39.5 39.5 93.5 63 q54 23.5 114 23.5 l36 0 q15 0 26 -11 q11 -11 11 -26 l0 -73 q0 -15 -11 -26 q-11 -11 -26 -11 l-36 0 q-61 0 -104 -42.5 q-43 -42.5 -43 -103.5 l0 -18 q0 -23 16 -39 q16 -16 39 -16 l128 0 q46 0 78 -32 q32 -32 32 -78 ZM951 329 l0 -219 q0 -46 -32 -78 q-32 -32 -78 -32 l-219 0 q-46 0 -78 32 q-32 32 -32 78 l0 402 q0 59 23 113 q23 54 62.5 93.5 q39.5 39.5 93.5 63 q54 23.5 114 23.5 l36 0 q15 0 26 -11 q11 -11 11 -26 l0 -73 q0 -15 -11 -26 q-11 -11 -26 -11 l-36 0 q-61 0 -104 -42.5 q-43 -42.5 -43 -103.5 l0 -18 q0 -23 16 -39 q16 -16 39 -16 l128 0 q46 0 78 -32 q32 -32 32 -78 Z" /><glyph glyph-name="quote_right" unicode="&#xf10e;" d="M439 695 l0 -402 q0 -60 -23 -114 q-23 -54 -62.5 -93.5 q-39.5 -39.5 -93.5 -62.5 q-54 -23 -114 -23 l-36 0 q-15 0 -26 11 q-11 11 -11 26 l0 73 q0 15 11 25.5 q11 10.5 26 10.5 l36 0 q61 0 104 43 q43 43 43 104 l0 18 q0 23 -16 39 q-16 16 -39 16 l-128 0 q-46 0 -78 32 q-32 32 -32 77 l0 220 q0 46 32 78 q32 32 78 32 l219 0 q46 0 78 -32 q32 -32 32 -78 ZM951 695 l0 -402 q0 -60 -23 -114 q-23 -54 -62.5 -93.5 q-39.5 -39.5 -93.5 -62.5 q-54 -23 -114 -23 l-36 0 q-15 0 -26 11 q-11 11 -11 26 l0 73 q0 15 11 25.5 q11 10.5 26 10.5 l36 0 q61 0 104 43 q43 43 43 104 l0 18 q0 23 -16 39 q-16 16 -39 16 l-128 0 q-46 0 -78 32 q-32 32 -32 77 l0 220 q0 46 32 78 q32 32 78 32 l219 0 q46 0 78 -32 q32 -32 32 -78 Z" /><glyph glyph-name="angle_left" unicode="&#xf104;" d="M353 580 q5 -6 5 -13.5 q0 -7.5 -5 -12.5 l-225 -225 l225 -224 q5 -6 5 -13.5 q0 -7.5 -5 -13.5 l-29 -28 q-6 -6 -13.5 -6 q-7.5 0 -12.5 6 l-267 266 q-5 6 -5 13.5 q0 7.5 5 12.5 l267 267 q5 5 12.5 5 q7.5 0 13.5 -5 l29 -29 Z" /></font>
</defs>
</svg>
