<?xml version="1.0" standalone="no"?>
<!DOCTYPE svg PUBLIC "-//W3C//DTD SVG 1.1//EN" "http://www.w3.org/Graphics/SVG/1.1/DTD/svg11.dtd" >
<svg xmlns="http://www.w3.org/2000/svg">
<metadata>
Created by FontForge 20120731 at Sun Jul  9 01:44:08 2017
 By admin
</metadata>
<defs>
<font id="iconfont" horiz-adv-x="1024" >
  <font-face 
    font-family="iconfont"
    font-weight="500"
    font-stretch="normal"
    units-per-em="1024"
    panose-1="2 0 6 3 0 0 0 0 0 0"
    ascent="896"
    descent="-128"
    x-height="792"
    bbox="0 -212 1170 896.316"
    underline-thickness="0"
    underline-position="0"
    unicode-range="U+0078-E877"
  />
<missing-glyph 
 />
    <glyph glyph-name=".notdef" 
 />
    <glyph glyph-name=".notdef" 
 />
    <glyph glyph-name=".null" horiz-adv-x="0" 
 />
    <glyph glyph-name="nonmarkingreturn" horiz-adv-x="341" 
 />
    <glyph glyph-name="x" unicode="x" horiz-adv-x="1001" 
d="M281 543q-27 -1 -53 -1h-83q-18 0 -36.5 -6t-32.5 -18.5t-23 -32t-9 -45.5v-76h912v41q0 16 -0.5 30t-0.5 18q0 13 -5 29t-17 29.5t-31.5 22.5t-49.5 9h-133v-97h-438v97zM955 310v-52q0 -23 0.5 -52t0.5 -58t-10.5 -47.5t-26 -30t-33 -16t-31.5 -4.5q-14 -1 -29.5 -0.5
t-29.5 0.5h-32l-45 128h-439l-44 -128h-29h-34q-20 0 -45 1q-25 0 -41 9.5t-25.5 23t-13.5 29.5t-4 30v167h911zM163 247q-12 0 -21 -8.5t-9 -21.5t9 -21.5t21 -8.5q13 0 22 8.5t9 21.5t-9 21.5t-22 8.5zM316 123q-8 -26 -14 -48q-5 -19 -10.5 -37t-7.5 -25t-3 -15t1 -14.5
t9.5 -10.5t21.5 -4h37h67h81h80h64h36q23 0 34 12t2 38q-5 13 -9.5 30.5t-9.5 34.5q-5 19 -11 39h-368zM336 498v228q0 11 2.5 23t10 21.5t20.5 15.5t34 6h188q31 0 51.5 -14.5t20.5 -52.5v-227h-327z" />
    <glyph glyph-name="twitter" unicode="&#xe600;" 
d="M961 661q-16 -33 -65 -73q-19 -16 -20 -45q-18 -345 -308 -480q-246 -114 -496 25q-8 4 -8 10q105 -7 189 32q47 21 73 44q-26 6 -29 6q-91 21 -132 106q-6 10 -3.5 15t15.5 4q23 -2 52 2q-132 53 -138 186q6 -2 23.5 -8t30 -8.5t25.5 -2.5q-61 52 -73 115q-14 72 21 132
q60 -66 112 -102q111 -75 251 -91q13 -2 17.5 1.5t3.5 17.5q-13 120 88 181q107 65 203 -6q41 -30 85 -10q5 2 65 28q-23 -62 -76 -98q21 0 54 9.5t38 10.5z" />
    <glyph glyph-name="facebook" unicode="&#xe601;" 
d="M721 834v-145q-12 1 -30.5 1.5t-54.5 -6.5t-48 -25q-7 -10 -8 -31.5t0 -55.5t1 -48h141q-23 -107 -29 -140h-113v-450h-196v221.5v226.5h-84v142h83v15q2 49 4 74.5t7.5 63t17 62.5t28.5 43q10 10 19 17.5t21.5 13t20.5 9t25.5 6t26.5 4t34 2t37 0.5h46h51z" />
    <glyph glyph-name="clock" unicode="&#xe602;" 
d="M512 768q159 0 271.5 -112.5t112.5 -271.5t-112.5 -271.5t-271.5 -112.5t-271.5 112.5t-112.5 271.5t112.5 271.5t271.5 112.5zM512 896q-139 0 -257 -68.5t-186.5 -186.5t-68.5 -257t68.5 -257t186.5 -186.5t257 -68.5t257 68.5t186.5 186.5t68.5 257t-68.5 257
t-186.5 186.5t-257 68.5v0zM686 302l-110 109v229h-129v-256q0 -28 23 -48l125 -125z" />
    <glyph glyph-name="mail" unicode="&#xe609;" 
d="M51 441v-485h928v485l-464 -230zM51 644v-129l464 -230l464 230v129h-928z" />
    <glyph glyph-name="link" unicode="&#xe6ab;" 
d="M969 395l-94 -94q-44 -44 -104.5 -53.5t-113.5 16.5l218 218q18 19 18 45.5t-18 44.5l-91 91q-19 19 -45 19t-45 -19l-218 -218q-26 53 -16.5 113.5t53.5 104.5l94 94q56 57 136 57t136 -57l90 -90q57 -56 57 -135.5t-57 -136.5zM331.5 120q-18.5 19 -18.5 45.5t19 44.5
l271 272q19 19 45.5 19t45.5 -19t19 -45.5t-19 -45.5l-272 -271q-18 -19 -45 -19t-45.5 19zM151 29l90 -90q19 -19 45.5 -19t45.5 19l218 218q26 -53 16 -114t-53 -104l-87 -95q-56 -56 -135.5 -56t-135.5 56l-99 99q-56 56 -56 135.5t56 135.5l95 87q43 43 104 53t114 -16
l-218 -218q-19 -19 -19 -45.5t19 -45.5z" />
    <glyph glyph-name="search" unicode="&#xe65b;" 
d="M996 -184q-28 -28 -68 -28t-68 28l-170 170q-111 -72 -241 -72q-92 0 -175 36t-143 96t-95.5 143t-35.5 174.5t35.5 174.5t95.5 143t143.5 95.5t174.5 35.5t174 -35.5t143 -95.5t96 -143t36 -175q0 -130 -72 -241l170 -170q28 -28 28 -68t-28 -68v0zM449 684
q-87 0 -161 -43t-117 -117t-43 -161t43 -161t117 -116.5t161 -42.5t161 42.5t116.5 116.5t42.5 161t-42.5 161t-116.5 117t-161 43z" />
    <glyph glyph-name="smile" unicode="&#xe64a;" 
d="M511 -64q-91 0 -174 35.5t-143 95.5t-95.5 143t-35.5 174t35.5 174t95.5 143t143 95.5t174 35.5t174 -35.5t143 -95.5t95.5 -143t35.5 -174t-35.5 -174t-95.5 -143t-143 -95.5t-174 -35.5zM511 768q-104 0 -192.5 -51.5t-140 -140t-51.5 -192.5t51.5 -192.5t140 -140
t192.5 -51.5t192.5 51.5t140 140t51.5 192.5t-51.5 192.5t-140 140t-192.5 51.5zM512 123q-67 0 -126.5 29t-100.5 81q-8 11 -6.5 24t12 21t23.5 6.5t21 -11.5q33 -41 79 -63.5t98 -22.5q53 0 99.5 22.5t78.5 64.5q8 11 21 12.5t23.5 -6.5t12.5 -21t-7 -24
q-41 -53 -100.5 -82.5t-127.5 -29.5zM368 381q-20 0 -34 14t-14 34v64q0 20 14 34t34 14t34 -14t14 -34v-64q0 -20 -14 -34t-34 -14zM656 381q-20 0 -34 14t-14 34v64q0 20 14 34t34 14t34 -14t14 -34v-64q0 -20 -14 -34t-34 -14z" />
    <glyph glyph-name="roundrightfill" unicode="&#xe65a;" 
d="M512 832q-185 0 -316.5 -131.5t-131.5 -316.5t131.5 -316.5t316.5 -131.5t316.5 131.5t131.5 316.5t-131.5 316.5t-316.5 131.5zM662 360l-160 -158q-10 -10 -23 -10t-22.5 9.5t-9.5 23t10 22.5l137 136l-136 137q-10 9 -10 22.5t9.5 22.5t23 9t22.5 -9l159 -160v0v0
q4 -4 7 -10v0q8 -20 -7 -35z" />
    <glyph glyph-name="list" unicode="&#xe682;" 
d="M896 640h-288q-13 0 -22.5 9.5t-9.5 22.5t9.5 22.5t22.5 9.5h288q13 0 22.5 -9.5t9.5 -22.5t-9.5 -22.5t-22.5 -9.5zM896 480h-288q-13 0 -22.5 9.5t-9.5 22.5t9.5 22.5t22.5 9.5h288q13 0 22.5 -9.5t9.5 -22.5t-9.5 -22.5t-22.5 -9.5zM896 224h-288q-13 0 -22.5 9.5
t-9.5 22.5t9.5 22.5t22.5 9.5h288q13 0 22.5 -9.5t9.5 -22.5t-9.5 -22.5t-22.5 -9.5zM896 64h-288q-13 0 -22.5 9.5t-9.5 22.5t9.5 22.5t22.5 9.5h288q13 0 22.5 -9.5t9.5 -22.5t-9.5 -22.5t-22.5 -9.5zM384 416h-192q-40 0 -68 28t-28 68v192q0 40 28 68t68 28h192
q40 0 68 -28t28 -68v-192q0 -40 -28 -68t-68 -28zM192 736q-13 0 -22.5 -9.5t-9.5 -22.5v-192q0 -13 9.5 -22.5t22.5 -9.5h192q13 0 22.5 9.5t9.5 22.5v192q0 13 -9.5 22.5t-22.5 9.5h-192zM384 -32h-192q-40 0 -68 28t-28 68v192q0 40 28 68t68 28h192q40 0 68 -28t28 -68
v-192q0 -40 -28 -68t-68 -28zM192 288q-13 0 -22.5 -9.5t-9.5 -22.5v-192q0 -13 9.5 -22.5t22.5 -9.5h192q13 0 22.5 9.5t9.5 22.5v192q0 13 -9.5 22.5t-22.5 9.5h-192z" />
    <glyph glyph-name="book" unicode="&#xe6fe;" 
d="M289 2v798h612h6q11 0 19 -7.5t8 -18.5v-745q0 -11 -8 -19t-19 -8v0h-6h-612v0zM907 -200q11 0 19 7.5t8 18.5v100q0 10 -8 18t-19 8t-18.5 -8t-7.5 -18v-73h-592v-53h618zM218 -147q-30 0 -51.5 20.5t-23.5 50.5l0.5 1l0.5 1v6q1 29 22.5 49.5t51.5 20.5h18v798h-18
q-53 0 -90 -37.5t-37 -89.5v-2v-1q-1 -655 0 -738q0 -1 -0.5 -2.5t-0.5 -2.5q0 -50 35 -86.5t85 -40.5h4h22v53h-18z" />
    <glyph glyph-name="home" unicode="&#xe6bb;" 
d="M982 492l-409 320q-26 21 -62 21t-62 -21l-406 -321q-10 -8 -11.5 -21t6.5 -23.5t21 -12t24 6.5l13 11v-388q0 -40 34 -68t74 -28h640q38 0 61 26.5t23 69.5v389l14 -12q9 -7 20 -7q16 0 25 13q9 10 7 23t-12 22zM608 99v-67h-192v179q0 31 25 54t71 23t71 -23t25 -54
v-112z" />
    <glyph glyph-name="share" unicode="&#xe618;" 
d="M0 812v0v0zM864 108q-68 0 -115 -49l-431 216q2 12 2 25t-2 25l431 216q47 -49 115 -49q66 0 113 47t47 113t-47 113t-113 47t-113 -47t-47 -113q0 -13 2 -25l-431 -216q-47 49 -115 49q-66 0 -113 -47t-47 -113t47 -113t113 -47q68 0 115 49l431 -216q-2 -12 -2 -25
q0 -66 47 -113t113 -47t113 47t47 113t-47 113t-113 47z" />
    <glyph glyph-name="back" unicode="&#xe625;" 
d="M321 248q-25 0 -40 19q-14 17 -12 38t19 35l327 267q16 14 37.5 12t35 -19t11.5 -38t-19 -35l-327 -267q-14 -12 -32 -12zM647 -19q-18 0 -32 12l-327 267q-17 14 -19 35t11.5 37.5t35 19t37.5 -11.5l327 -267q17 -14 19 -35t-12 -38q-15 -19 -40 -19z" />
    <glyph glyph-name="qq" unicode="&#xe62d;" 
d="M200 344l-2 6l-1 6l-1 4v5v5v5l1 6l2 7l2 6l3 8l4 8l5 7v6l1 5l1 7l2 7l2 9l2 4l2 3l2 4l3 3v5v7v7l2 10l1 11l3 14l4 14l3 8l3 9l3 8l4 8l4 9l4 9l6 9l6 10l3 5l3 4l7 10l7 10l8 10l8 10l10 10l9 10l12 10l7 7l9 7l10 6l10 6l9 5l11 5l11 5l12 4l11 4l12 4l12 2l13 3
l13 2l13 2l13 1l14 1h13h13h14l14 -1l13 -2l14 -2l13 -3l13 -3l13 -3l14 -4l13 -4l12 -5l13 -6l12 -6l12 -6l11 -8l10 -6l4 -4l5 -3l9 -8l8 -7l7 -8l8 -8l6 -9l7 -8l5 -9l5 -8l6 -10l4 -8l8 -17l4 -9l3 -9l3 -9l2 -8l2 -8l2 -8l5 -16l2 -13l2 -13l1 -10l3 -16v-3l2 -3l5 -8
l3 -6l3 -5l4 -7l3 -7l2 -8l3 -8l1 -9l1 -4l1 -5v-5l-1 -4v-6l-1 -5l-3 -11l-2 -5l-2 -6v-2l1 -1l2 -5l12 -17l10 -14l4 -9l6 -9l6 -11l6 -11l6 -13l7 -15l4 -8l3 -9l3 -9l3 -8l3 -9l2 -8l3 -16l2 -16l2 -14v-8v-7v-6l-1 -7l-2 -12l-2 -11l-3 -10l-1 -5l-3 -4l-2 -4l-2 -4
l-3 -3l-2 -3l-3 -3l-3 -2l-3 -2l-3 -1l-2 -1h-2h-2l-2 1l-5 2l-2 1l-2 2l-3 2l-2 3l-4 4l-5 6l-3 6l-4 6l-4 6l-5 10l-5 11l-1 1h-1l-2 -2l-2 -3l-2 -4l-4 -10l-6 -16l-7 -18l-6 -9l-6 -10l-7 -10l-7 -11l-4 -5l-5 -5l-10 -10l1 -1l1 -2l5 -3l23 -10l9 -6l9 -5l10 -7l8 -7
l4 -3l3 -3l3 -5l2 -4l1 -4l2 -4l1 -4l1 -5l-1 -3v-3l-1 -3l-2 -3v-2l-2 -3l-4 -5l-3 -5l-3 -3l-3 -2l-6 -5l-7 -4l-7 -4l-8 -3l-9 -3l-5 -2l-4 -1l-10 -3l-11 -2l-10 -2l-12 -2h-12l-12 -2h-12h-13h-13l-14 1l-12 1l-14 2l-14 1l-14 2l-14 4l-13 3l-14 3l-14 5l-13 4l-7 3
l-7 2l-4 2h-4h-5h-6l-13 1l-7 1l-8 1l-6 -5l-7 -5l-10 -5l-11 -6l-7 -3l-7 -3l-16 -6l-8 -2l-9 -3l-13 -2l-7 -1h-8l-9 -1l-10 -1h-9h-10h-22l-22 1l-23 2l-11 2l-11 1l-10 2l-11 2l-10 3l-10 2l-9 4l-8 3l-8 4l-7 4l-6 5l-3 2l-3 3l-2 3l-2 3l-2 3l-1 3l-2 6l-1 3l-1 4v3
l1 4v3l1 4v2v6v4l2 4l1 5l3 5l2 2l1 3l5 5l3 2l3 2l3 3l5 1l3 2l5 3l5 1l6 2l6 1l6 1l6 1l8 1h2v0l1 1v1l-1 2l-4 2l-10 8l-7 6l-7 6l-8 8l-8 10l-10 10l-3 6l-5 6l-4 7l-3 8l-5 7l-3 9l-4 8l-4 9l-2 9l-3 11l-1 1h-1v1h-1l-1 -1l-1 -1l-1 -2l-1 -2l-1 -2l-1 -3l-5 -8l-2 -5
l-4 -4l-4 -5l-4 -6l-5 -5l-5 -5l-5 -5l-6 -3l-6 -4l-6 -2l-7 -2l-6 -1h-1h-1l-1 1l-2 2l-2 2l-2 6l-2 4l-2 4l-1 6l-1 5l-2 11l-1 7v7v15l1 17l1 8l2 9l1 10l3 8l3 10l3 10l4 10l3 10l6 10l4 10l6 10l7 11l7 10l7 11l7 7l7 9l9 8l3 4l5 5l7 6l7 6l11 10l9 6z" />
    <glyph glyph-name="weibo" unicode="&#xe619;" 
d="M730 320l15 35q29 92 -54 107q-67 12 -205 -33q34 29 33 73t-30 65q-30 19 -69 18.5t-84 -22.5t-90 -54.5t-86 -76.5t-72.5 -89.5t-50.5 -93t-19 -86.5q0 -44 24.5 -89t71 -84t126.5 -64t180 -25q101 0 183 21t132.5 53t85 71.5t48 75t13.5 65.5q0 37 -15.5 64t-38 39.5
t-44.5 20t-38 8.5zM432 -49.5q-123 -11.5 -215.5 39.5t-100 134.5t73.5 150.5t204 78.5t215.5 -39.5t100.5 -134.5t-73.5 -150.5t-204.5 -78.5zM374 273q-67 -11 -107 -59.5t-30.5 -105.5t63.5 -89.5t120.5 -21t107 60t30.5 105.5t-63.5 89t-120.5 21zM358.5 56
q-21.5 -6 -40.5 4t-24.5 29.5t6 37.5t33 24t40.5 -3.5t24.5 -29.5t-6 -38t-33 -24zM433 141q-11 0 -19 7.5t-8 18.5t8 19t19 8t19 -8t8 -19t-8 -18.5t-19 -7.5zM951 604q-44 57 -113 80.5t-153 11.5q-14 -2 -23 -13.5t-7 -25.5t13.5 -22.5t26.5 -6.5q134 19 201 -66
q30 -39 38 -89t-10 -93q-5 -13 0.5 -26t18.5 -19q7 -2 13 -2q24 0 32 21q25 60 14.5 129t-51.5 121zM718 570q-14 -2 -22.5 -13.5t-6.5 -25.5t13.5 -22.5t25.5 -6.5q49 7 72 -22q10 -13 12.5 -30t-3.5 -32q-5 -13 0.5 -26t18.5 -19q7 -2 13 -2q24 0 33 21q12 32 7 67.5
t-27 62.5q-47 61 -136 48z" />
    <glyph glyph-name="segmentfault" unicode="&#xe603;" 
d="M123 145q71 -64 144 -64q32 0 56 15t24 46q0 14 -6 24.5t-19.5 19t-25.5 14t-35 14t-37 14.5q-65 28 -99.5 64t-34.5 100q0 87 61 130t158 43q113 0 188 -48v-14l-48 -93q-55 41 -127 41q-33 0 -52 -13.5t-19 -38.5q0 -11 5 -20t11 -15t19 -12.5t22.5 -10t29 -10.5
t30.5 -11q74 -28 109 -64t35 -103q0 -90 -62.5 -135t-165.5 -45q-119 0 -211 70v14zM656 -26q0 113 3 450q-32 -1 -75 -1l1 121q42 0 73 -1q0 3 -1 54.5t-1 53.5q0 96 49.5 140.5t132.5 44.5q72 0 135 -26v-18l-35 -96q-29 17 -60 17q-27 0 -41 -17.5t-14 -62.5
q0 -13 1 -51.5l1 -38.5q35 1 113 1l-1 -121q-78 0 -114 1q3 -112 3 -450h-170v0z" />
    <glyph glyph-name="sort" unicode="&#xe700;" 
d="M384 576h512q13 0 22.5 9.5t9.5 22.5t-9.5 22.5t-22.5 9.5h-512q-13 0 -22.5 -9.5t-9.5 -22.5t9.5 -22.5t22.5 -9.5zM896 416h-512q-13 0 -22.5 -9.5t-9.5 -22.5t9.5 -22.5t22.5 -9.5h512q13 0 22.5 9.5t9.5 22.5t-9.5 22.5t-22.5 9.5zM896 192h-512q-13 0 -22.5 -9.5
t-9.5 -22.5t9.5 -22.5t22.5 -9.5h512q13 0 22.5 9.5t9.5 22.5t-9.5 22.5t-22.5 9.5zM192 608zM128 608q0 26 19 45t45 19t45 -19t19 -45t-19 -45t-45 -19t-45 19t-19 45zM192 384zM128 384q0 26 19 45t45 19t45 -19t19 -45t-19 -45t-45 -19t-45 19t-19 45zM192 160zM128 160
q0 26 19 45t45 19t45 -19t19 -45t-19 -45t-45 -19t-45 19t-19 45z" />
    <glyph glyph-name="jianshu" unicode="&#xe613;" 
d="M282 883l93 -61q8 -7 -3 -14q-18 -8 -40 -29l-14 -18l122 7l46 50l65 -53l3 -7q-3 -4 -7 -4l-157 -7q46 -29 46 -61q-3 -29 -32 -36q-29 -3 -29 15q-3 60 -18 78l-60 -3q-86 -79 -183 -161q-7 -8 -7 7q122 154 175 297zM293 482l-7 -354q-4 -50 -54 -104q-14 -11 -18 0
l8 261v143l-4 129l82 -32q4 0 7 -4l-3 -7zM325 654q104 -32 104 -57q-7 -43 -32 -58q-18 -10 -29 11q-28 79 -50 97q-3 10 7 7zM433 228q-11 -32 -40 -54q-14 -10 -18 8v236v71q-1 6 0.5 6.5t7.5 -2.5l50 -32l164 7l29 39l71 -39q4 0 4 -7l-22 -33l4 -153q-4 -36 -43 -86
q-18 -15 -28 0q-4 10 -15 25q-7 14 -11 21zM601 450l-172 -4v-89l147 7q7 0 7 -7t-11 -7l-143 -7l4 -101l168 8v200zM615 564q-68 0 -111 -10l-25 25l279 14l36 39l75 -46q0 -4 4 -4q3 -3 -4 -7l-29 -36l4 -204l4 -143q7 -100 -108 -175q-7 -4 -10.5 0t0.5 11q-4 50 -36 75
q-4 3 -4 7t4 4q37 -2 54 7t14 28l-4 422zM615 890l90 -54q7 -3 -4 -11q-22 -7 -36 -28q-3 -4 -7 -11q-7 -11 -14 -18l154 7l46 50l64 -53q8 -7 0 -7l-196 -11q71 -39 71 -72q-7 -32 -43 -50q-28 -3 -28 18q-4 75 -25 104l-58 -4q-10 -10 -32 -35q-43 -54 -75 -86
q-7 -4 -10.5 -4t-0.5 7q72 151 104 258z" />
    <glyph glyph-name="circle-left" unicode="&#xe71f;" 
d="M512 -64q-185 0 -316.5 131.5t-131.5 316.5t131.5 316.5t316.5 131.5t316.5 -131.5t131.5 -316.5t-131.5 -316.5t-316.5 -131.5zM512 768q-159 0 -271.5 -112.5t-112.5 -271.5t112.5 -271.5t271.5 -112.5t271.5 112.5t112.5 271.5t-112.5 271.5t-271.5 112.5zM290 372
l1 -1q2 -6 6 -10v0v0l159 -159q10 -10 23 -10t22.5 9.5t9.5 22.5t-9 23l-104 103h305q14 0 23 9.5t9 23t-9 22.5t-23 9h-306l106 105q9 10 9 23t-9 22.5t-23 9.5q-13 0 -22 -9l-161 -159q-15 -15 -7 -34z" />
    <glyph glyph-name="circle-right" unicode="&#xe720;" 
d="M512 -64q-185 0 -316.5 131.5t-131.5 316.5t131.5 316.5t316.5 131.5t316.5 -131.5t131.5 -316.5t-131.5 -316.5t-316.5 -131.5zM512 768q-159 0 -271.5 -112.5t-112.5 -271.5t112.5 -271.5t271.5 -112.5t271.5 112.5t112.5 271.5t-112.5 271.5t-271.5 112.5zM733 395v0
q-3 6 -7 10v0v0l-159 160q-9 9 -22.5 9t-23 -9t-9.5 -22.5t10 -22.5l103 -104h-305q-13 0 -22.5 -9.5t-9.5 -22.5t9.5 -22.5t22.5 -9.5h307l-106 -105q-10 -9 -10 -22.5t9.5 -23t22.5 -9.5t23 10l160 158q15 15 7 35z" />
    <glyph glyph-name="loading" unicode="&#xe614;" 
d="M384 768q0 53 37.5 90.5t90.5 37.5t90.5 -37.5t37.5 -90.5t-37.5 -90.5t-90.5 -37.5t-90.5 37.5t-37.5 90.5zM656 656q0 53 37.5 90.5t90.5 37.5t90.5 -37.5t37.5 -90.5t-37.5 -90.5t-90.5 -37.5t-90.5 37.5t-37.5 90.5zM832 384q0 27 18.5 45.5t45.5 18.5t45.5 -18.5
t18.5 -45.5t-18.5 -45.5t-45.5 -18.5t-45.5 18.5t-18.5 45.5zM720 112.5q0 26.5 18.5 45t45 18.5t45.5 -18.5t19 -45t-19 -45.5t-45.5 -19t-45 19t-18.5 45.5zM448 0v0q0 27 18.5 45.5t45.5 18.5t45.5 -18.5t18.5 -45.5v0q0 -27 -18.5 -45.5t-45.5 -18.5t-45.5 18.5
t-18.5 45.5zM176 112v0q0 27 19 45.5t45.5 18.5t45 -18.5t18.5 -45.5v0q0 -26 -18.5 -45t-45 -19t-45.5 19t-19 45zM144 656v0q0 39 28.5 67.5t68 28.5t67.5 -28.5t28 -67.5v0q0 -40 -28 -68t-67.5 -28t-68 28t-28.5 68zM56 384q0 30 21 51t51 21t51 -21t21 -51t-21 -51
t-51 -21t-51 21t-21 51z" />
    <glyph glyph-name="acfun" unicode="&#xe604;" horiz-adv-x="1092" 
d="M521 896l-521 -859l261 -165l53 185l414 31l107 -205l257 154zM415 254l98 217l111 -217h-209z" />
    <glyph glyph-name="close" unicode="&#xe60c;" 
d="M512 217l-321 -320l-82 82l320 321l-320 321l82 82l321 -320l321 320l82 -82l-320 -321l320 -321l-82 -82z" />
    <glyph glyph-name="tumblr" unicode="&#xe6b0;" 
d="M843 796h-662q-68 0 -116.5 -48.5t-48.5 -116.5v-662q0 -68 48.5 -116.5t116.5 -48.5h662q68 0 116.5 48.5t48.5 116.5v662q0 68 -48.5 116.5t-116.5 48.5zM725 -3q-44 -21 -80 -29q-35 -8 -77 -8q-37 0 -73 12t-61.5 33.5t-35.5 46.5t-10 72v240h-93v97q53 17 77 37
q29 25 46.5 59t23.5 87h98v-158h158v-122h-158v-176q0 -64 3 -74q7 -18 26 -29q23 -14 52 -14q52 0 104 34v-108v0z" />
    <glyph glyph-name="calendar" unicode="&#xe667;" 
d="M870 763h-37v-182q0 -29 -20.5 -49.5t-49.5 -20.5t-49.5 20.5t-20.5 49.5v182h-361v-181q0 -29 -20.5 -49.5t-49.5 -20.5t-49.5 20.5t-20.5 49.5v181h-38q-37 0 -63.5 -26.5t-26.5 -63.5v-196h896v196q0 37 -26.5 63.5t-63.5 26.5zM315 601q0 -22 -15.5 -38t-37.5 -16v0
q-22 0 -38 16t-16 38v176q0 23 16 38.5t38 15.5v0q22 0 37.5 -15.5t15.5 -38.5v-176zM818 601q0 -22 -15.5 -38t-38.5 -16v0q-22 0 -37.5 16t-15.5 38v176q0 23 15.5 38.5t37.5 15.5v0q23 0 38.5 -15.5t15.5 -38.5v-176zM908 439v-358q0 -38 -26.5 -64t-63.5 -26h-613
q-37 0 -63 26t-26 64v258v93v7h-52v-412q0 -37 26.5 -63.5t63.5 -26.5h716q37 0 63.5 26.5t26.5 63.5v412h-52zM537 179h71q9 -41 42 -41q20 0 31 12t11 34q0 40 -42 41h-22v44h10q25 1 34.5 11t9.5 31q0 14 -9.5 22.5t-24.5 8.5q-13 0 -21 -4t-10.5 -8.5t-6.5 -15.5l-66 -1
q23 77 106 78q101 -3 105 -82q0 -38 -45 -58q57 -19 57 -69q-4 -83 -117 -87q-47 0 -76 22t-37 62zM489 161v-62h-227v40q39 61 95 97q57 38 57 70q0 27 -34 27q-41 -1 -41 -36h-72q3 48 36.5 71t82.5 23q99 -4 106 -84q4 -57 -73 -105q-24 -14 -31.5 -19.5t-21.5 -21.5h123
v0z" />
    <glyph glyph-name="rss" unicode="&#xe877;" 
d="M329 44q0 -46 -32 -78t-77.5 -32t-77.5 32t-32 78t32 78t77.5 32t77.5 -32t32 -78zM622 -26q1 -16 -10 -28q-10 -12 -27 -12h-77q-14 0 -24.5 9.5t-11.5 23.5q-13 131 -105.5 224t-223.5 106q-14 1 -23.5 11t-9.5 25v77q0 16 12 27q9 9 24 9h3q91 -7 174.5 -45.5
t148.5 -103.5t103.5 -148.5t46.5 -174.5v0zM914 -27q1 -16 -10 -27q-10 -12 -26 -12h-82q-15 0 -25.5 10t-11.5 25q-6 122 -57 233t-132.5 192t-192 132t-233.5 59q-14 0 -24 10.5t-10 25.5v81q0 16 11 27q10 10 25 10h2q150 -8 286.5 -69t243.5 -168q106 -106 167.5 -243
t68.5 -286v0z" />
    <glyph glyph-name="price-tags" unicode="&#xe6f9;" horiz-adv-x="1025" 
d="M256 640q0 30 -21.5 51.5t-51.5 21.5t-51.5 -21.5t-21.5 -51.5t21.5 -51.5t51.5 -21.5t51.5 21.5t21.5 51.5zM866 311q0 -30 -21 -52l-281 -281q-22 -21 -52 -21t-51 21l-409 409q-22 22 -37 58.5t-15 66.5v238q0 29 21.5 51t51.5 22h238q30 0 66.5 -15t58.5 -37
l409 -408q21 -22 21 -52v0z" />
    <glyph glyph-name="quo-left" unicode="&#xe7f5;" 
d="M826 386h-128q0 79 56.5 135.5t135.5 56.5q27 0 45.5 18.5t18.5 45t-18.5 45.5t-45.5 19q-87 0 -160.5 -43t-116.5 -116.5t-43 -160.5v-256q0 -53 37.5 -90.5t90.5 -37.5h128q53 0 90.5 37.5t37.5 90.5v128q0 53 -37.5 90.5t-90.5 37.5zM378 578q27 0 45.5 18.5t18.5 45
t-18.5 45.5t-45.5 19q-86 0 -160 -43t-117 -116.5t-43 -160.5v-256q0 -53 37.5 -90.5t90.5 -37.5h128q53 0 90.5 37.5t37.5 90.5v128q0 53 -37.5 90.5t-90.5 37.5h-128q0 79 56.5 135.5t135.5 56.5z" />
    <glyph glyph-name="quo-right" unicode="&#xe7f6;" 
d="M352 736h-128q-53 0 -90.5 -37.5t-37.5 -90.5v-128q0 -53 37.5 -90.5t90.5 -37.5h128q0 -79 -56 -135.5t-136 -56.5q-27 0 -45.5 -18.5t-18.5 -45.5t18.5 -45.5t45.5 -18.5q133 0 226.5 93.5t93.5 226.5v256q0 53 -37.5 90.5t-90.5 37.5zM864 736h-128q-53 0 -90.5 -37.5
t-37.5 -90.5v-128q0 -53 37.5 -90.5t90.5 -37.5h128q0 -79 -56.5 -135.5t-135.5 -56.5q-27 0 -45.5 -18.5t-18.5 -45.5t18.5 -45.5t45.5 -18.5q133 0 226.5 93.5t93.5 226.5v256q0 53 -37.5 90.5t-90.5 37.5z" />
    <glyph glyph-name="back1" unicode="&#xe64e;" 
d="M222 245q10 -13 25 -21l7 -6q17 -14 41 -14t41 14q24 21 14 49q3 11 3 20v55h331q71 0 121 -45.5t50 -109.5q0 -48 -29.5 -86.5t-76.5 -56.5l5 -4q-4 -6 -4 -12q0 -11 9 -19t21 -8q21 0 29 18q69 29 110.5 84.5t41.5 122.5q0 96 -80.5 163.5t-194.5 67.5h-333v54
q0 9 -3 19q12 30 -14 51q-17 14 -41 14t-41 -14l-9 -8q-12 -7 -20 -17l-131 -112q-9 -4 -14 -8q-18 -15 -17 -37q-1 -21 17 -36q5 -5 14 -9l128 -109v0zM208 403v-7l-4 3l4 4v0zM208 403z" />
    <glyph glyph-name="github" unicode="&#xe735;" 
d="M1 371q0 -165 95.5 -297.5t246.5 -184.5q6 -2 10 -2t6.5 1.5t4 3t2 5t0.5 5.5v6.5v5.5v88q-37 -4 -66 0.5t-45 14t-28.5 23.5t-17.5 25.5t-9 23.5t-6 15q-8 14 -26 27t-27 20.5t-2 14.5q50 26 113 -66q34 -51 118 -30q10 40 40 70q-115 20 -171.5 85t-55.5 158
q0 87 55 150q-22 66 5 137q30 3 66 -10.5t50 -23t25 -18.5q58 16 129 16q70 0 129 -16q13 10 28.5 19.5t49 21.5t61.5 9q26 -71 6 -134q56 -64 56 -152q0 -92 -56.5 -157t-172.5 -86q44 -42 44 -104v-128v-3l1.5 -9t4.5 -6t11 -3q154 52 251 185t97 300q0 104 -40.5 198.5
t-109 162.5t-163 108.5t-198.5 40.5t-198.5 -40t-163 -108.5t-109 -163t-40.5 -198.5z" />
    <glyph glyph-name="film" unicode="&#xe7b7;" 
d="M0 684v-768h1024v768h-1024zM192 -20h-128v128h128v-128zM192 236h-128v128h128v-128zM192 492h-128v128h128v-128zM768 -20h-512v640h512v-640zM960 -20h-128v128h128v-128zM960 236h-128v128h128v-128zM960 492h-128v128h128v-128zM384 492v-384l256 192z" />
    <glyph glyph-name="weixin" unicode="&#xe61f;" horiz-adv-x="1171" 
d="M331 633q0 23 -14 37.5t-38 14.5t-43 -15t-19 -37q0 -23 19 -37.5t43 -14.5t38 14t14 38v0zM756 343q0 16 -14.5 28.5t-37.5 12.5q-15 0 -28 -13t-13 -28q0 -16 13 -29t28 -13q23 0 37.5 12.5t14.5 29.5zM621 633q0 23 -14 37.5t-37 14.5q-25 0 -44 -15t-19 -37
q0 -23 19 -37.5t44 -14.5q23 0 37 14t14 38v0zM984 343q0 16 -15 28.5t-37 12.5q-15 0 -28 -13t-13 -28q0 -16 13 -29t28 -13q22 0 37 12.5t15 29.5zM832 570q-18 2 -40 2q-97 0 -178 -44t-127.5 -119t-46.5 -164q0 -45 13 -87q-20 -2 -39 -2q-15 0 -28.5 1t-31 3.5t-25.5 4
t-31.5 6t-28.5 6.5l-144 -73l41 125q-166 116 -166 280q0 96 55.5 177t151 128t207.5 47q101 0 190.5 -38t149.5 -104.5t78 -148.5v0zM1170 249q0 -67 -39 -127.5t-106 -110.5l32 -104l-114 63q-86 -21 -125 -21q-96 0 -177 40t-128 109t-47 151t46.5 151t128 109.5
t177.5 40.5q92 0 173.5 -40.5t130 -110t48.5 -150.5v0z" />
    <glyph glyph-name="qzone" unicode="&#xe680;" horiz-adv-x="1117" 
d="M813 258q12 -36 28 -85q-210 20 -362 47q-1 5 24 26.5t63.5 50t83 62t82.5 62t62.5 48.5t22.5 24q-86 14 -173.5 19.5t-150.5 3t-113 -7.5t-76 -10l-25 -5l375 -52q-354 -237 -359 -259q182 -33 550 -22q83 -258 53 -272q-20 -9 -63.5 7t-92.5 45t-95.5 59.5t-76.5 52.5
t-30 23q-3 -3 -9.5 -7.5t-26 -18.5t-38.5 -27t-45.5 -31t-50.5 -32.5t-49 -29t-44.5 -24t-35.5 -14t-23 -0.5q-19 9 -23.5 50.5t3 94t18 103t19.5 85t10 34.5q-4 3 -9.5 7.5t-23 19t-34.5 29t-39.5 34.5t-42 38.5t-39 38.5t-32.5 36.5t-20 30.5t-4 23q6 23 109 40t185 23
t99 6q5 12 12 32.5t28.5 72.5t40.5 92.5t41.5 75.5t38.5 39q24 5 66 -69t72.5 -147t30.5 -77q4 0 12 -1t32.5 -4l49 -6t57.5 -8t62 -9.5t59 -10t52.5 -11t38 -11t19.5 -10.5q19 -24 -199 -199q-60 -49 -94 -75zM951 164q-42 -2 -106 -4q0 3 -1.5 7t-2.5 6z" />
    <glyph glyph-name="category" unicode="&#xe605;" 
d="M970 -35h-941q-13 0 -21 8v0q-8 9 -8 22t8 21v0q8 9 21 9h941q20 0 27 -18q2 -6 2 -12.5t-2 -11.5q-7 -18 -27 -18zM704 193h-675q-12 0 -21 8v0q-8 9 -8 22t8 21v0q8 9 21 9h675q20 0 27 -18q2 -6 2 -12t-2 -12q-7 -18 -27 -18zM27 495h416q11 0 19 -9v0q7 -9 7 -21
t-7 -20v-1q-8 -9 -19 -9h-416q-11 0 -19 9l-1 1q-7 8 -7 20t7 21h1q7 9 19 9zM27 714h416q11 0 19 -9v0q7 -9 7 -21t-7 -20v0q-8 -10 -19 -10h-416q-12 0 -19 10h-1q-7 8 -7 20t7 21h1q7 9 19 9zM698 802q14 1 29 1q93 0 159 -66t66 -159q0 -21 -4 -41h-55q5 20 5 41
q0 71 -50 121.5t-121 50.5q-15 0 -29 -3v55v0zM859 396l161 -277q2 -4 3 -7v0q1 -4 1 -8v0q0 -12 -9 -21t-22 -9q-8 0 -14.5 4t-10.5 11v0l-162 278l-10 -4l1 1q-34 -11 -70 -11q-94 0 -159.5 66t-65.5 159t66 159q54 55 130 65v-55q-54 -9 -92 -48q-51 -50 -51 -121
t50.5 -121t121.5 -50t121 50q34 34 45 80h55q-13 -69 -62 -118q-13 -13 -27 -23z" />
    <glyph glyph-name="douban" unicode="&#xe64c;" 
d="M823 822h-621q-56 0 -95.5 -40t-39.5 -96v-621q0 -56 39.5 -95.5t95.5 -39.5h621q56 0 96 39.5t40 95.5v621q0 56 -40 96t-96 40zM230 689h587v-71h-587v71zM770 571v-281h-493v281h493zM841 78h-634v71h185q-6 16 -14.5 33t-13 24t-20 30t-17.5 26l65 26q25 -37 69 -139
h124q45 86 64 139l71 -26q-40 -91 -60 -113h181v-71zM348 501h352v-141h-352v141z" />
    <glyph glyph-name="roundleftfill" unicode="&#xe799;" 
d="M512 832q-185 0 -316.5 -131.5t-131.5 -316.5t131.5 -316.5t316.5 -131.5t316.5 131.5t131.5 316.5t-131.5 316.5t-316.5 131.5zM566 248q10 -9 10 -22.5t-9.5 -22.5t-23 -9t-22.5 9l-159 160v0v0q-3 3 -6 8q0 1 -0.5 1.5l-0.5 0.5q-8 20 7 35l160 158q10 10 23 10
t22.5 -9.5t9.5 -23t-10 -22.5l-137 -136z" />
    <glyph glyph-name="tuding" unicode="&#xe651;" 
d="M949 -7l-223 223l206 207q11 11 10 26t-13 25q-72 58 -163 74t-175 -12l-215 170q2 60 -30 110q-9 13 -25 14.5t-27 -9.5l-219 -219q-11 -11 -9.5 -27t14.5 -24q50 -33 111 -31l170 -215q-29 -84 -12.5 -175.5t74.5 -163.5q10 -12 25 -13t26 10l206 207l223 -223
q10 -10 23.5 -10t23 9.5t9.5 23t-10 23.5z" />
    <glyph glyph-name="zhihu" unicode="&#xe61b;" 
d="M504 405h-147v224h130q16 0 27 11t11 26.5t-11 27t-27 11.5h-248q6 28 10 73v3q1 11 2 16q1 16 -8.5 28t-25.5 14t-28.5 -8t-13.5 -26q-1 -6 -2 -20v-1q-3 -29 -6 -46t-12.5 -46.5t-30.5 -58t-53 -58.5q-12 -11 -12.5 -26.5t10.5 -27.5t28 -12q15 0 26 10q57 52 88 110h2
h68v-224h-175q-16 0 -27 -11t-11 -27t11 -27t27 -11h173q-14 -234 -190 -322q-14 -7 -19 -22t2 -29q11 -21 34 -21q10 0 18 4q156 78 208 250q3 -8 8 -15l121 -143q12 -14 30 -14q13 0 24 9q12 10 13.5 26t-8.5 28l-121 143q-10 12 -26 13.5t-28 -8.5l-3 -3q11 49 14 104
h148q15 0 26.5 11t11.5 27t-11.5 27t-26.5 11zM922 712h-299q-16 0 -27 -11t-11 -27v-553q0 -15 11 -26.5t27 -11.5h23l5 -93v-1q2 -22 23 -31q7 -3 15 -3q14 0 24 8l1 1l120 119h88q16 0 27.5 11.5t11.5 26.5v553q0 16 -11.5 27t-27.5 11zM681 159h-19v477h222v-477h-64
q-14 0 -24 -8l-1 -1l-73 -76l-3 50v1q-1 15 -12 24.5t-26 9.5z" />
    <glyph glyph-name="linkedin" unicode="&#xe6d4;" 
d="M259 -60h-191v637h191v-637v0zM958 -60h-192v338q0 132 -93 132q-74 0 -95 -73v-397h-192q3 572 0 637h161v-127h2q66 107 189 107q105 0 158 -65q62 -71 62 -192v-360zM262 734q0 -40 -29 -67.5t-69.5 -27.5t-69.5 27.5t-29 67.5t29 68t69.5 28t69.5 -28t29 -68v0v0z
" />
    <glyph glyph-name="google" unicode="&#xe635;" 
d="M626 825h-260q-97 0 -169 -61.5t-72 -142.5q0 -84 53 -140t143 -56q10 0 25 1q-14 -26 -14 -50q0 -21 9 -35t29 -33q-8 0 -23.5 -0.5t-23.5 -0.5q-109 0 -183 -62.5t-74 -140.5q0 -72 80.5 -116t197.5 -44q124 0 201 59t77 137q0 61 -20 98t-81 83q-2 2 -6 5
q-70 52 -70 75q0 22 10 37.5t42 40.5q77 60 77 139q0 48 -19.5 87t-54.5 60h68zM538 157q3 -14 3 -28q0 -64 -47 -102.5t-150 -38.5q-77 0 -128.5 42.5t-51.5 102.5q0 59 57.5 102t135.5 42q35 -1 67 -11q8 -5 27 -18t26 -18t20.5 -16t19.5 -18t12 -17.5t9 -21.5zM371 465
q-54 2 -97 46t-51 112q-10 69 21 115.5t83 44.5q52 -1 92.5 -50t49.5 -119q9 -69 -18 -110t-80 -39zM838 706v119h-59v-119h-120v-60h120v-120h59v120h120v60h-120z" />
    <glyph glyph-name="plane" unicode="&#xe62f;" 
d="M496 855l-361 -929q-3 -8 2.5 -15.5t15.5 -7.5l327 30l32 761l32 -761l327 -30q10 -1 16 7q3 4 3 10q0 4 -1 7l-361 929q-4 11 -16 11q-12 -1 -16 -12z" />
    <glyph glyph-name="bilibili" unicode="&#xe622;" horiz-adv-x="1130" 
d="M275 844q-13 -13 -18 -25q-3 -9 5.5 -35t14 -26t17 -12.5t11.5 -17.5q0 -12 -12 -19t-33 -7q-25 0 -66 -16t-58 -33q-17 -15 -37 -54l-20 -39v-453l20 -39q18 -34 32 -48.5t48 -33.5l34 -18l702 -4l40 19q37 18 56.5 37t35.5 55l18 36v223v223l-17 35q-16 35 -41 58
q-22 22 -57 37t-61 15q-39 0 -46 15.5t21 40.5q14 14 18 21.5t4 22.5q0 24 -16.5 40.5t-28.5 16.5q-8 0 -21 -5.5t-18 -10.5q-15 -16 -73 -72l-70 -69l-81 1q-79 0 -90 4q-11 5 -70 63q-40 39 -60 57t-36.5 27t-25.5 5.5t-21 -15.5zM904 591q11 -1 31 -19l21 -19l1 -209
q1 -144 0 -179.5t-8 -48.5q-21 -38 -63 -40q-25 -1 -340 0l-315 1l-43 43v426l20 22q19 22 40 24q12 1 317.5 0.5t338.5 -1.5zM347 429q-14 -16 -17 -25t-3 -40q0 -29 2.5 -38t15.5 -23q40 -47 81 2q8 9 10.5 20t2.5 42q0 34 -2.5 42.5t-16.5 22.5q-20 20 -36.5 19.5
t-36.5 -22.5zM726 432q-14 -14 -16.5 -23t-2.5 -43q0 -35 2.5 -44t15.5 -21q18 -17 29 -20t27 6q40 23 36 88q-2 25 -5 34.5t-16 22.5q-18 19 -34.5 19t-35.5 -19z" />
    <glyph glyph-name="psp" unicode="&#xe6c7;" 
d="M263 627q42 0 79 -19.5t62 -52.5h217q24 32 60 50t78 18q72 0 123.5 -51.5t51.5 -123.5q0 -29 -9 -55q39 -140 32 -303q-21 -22 -46 -33.5t-41.5 -14.5t-46.5 -5q-79 96 -151 254q-24 9 -41 37h-239q-17 -27 -42 -36q-72 -157 -152 -255q-30 2 -46 5t-41.5 14.5
t-46.5 33.5q-6 165 33 305q-9 27 -9 57q0 72 51 123.5t124 51.5zM433 465v-39h65v39h-65zM776 433q-14 -3 -22 -15t-5 -26.5t15.5 -22t26.5 -4.5t22 15t5 26.5t-15.5 22t-26.5 4.5zM694 489q-14 -3 -22 -15t-5 -26.5t15.5 -22.5t26.5 -4.5t22 15.5t5 26.5t-15.5 22
t-26.5 4.5zM744 569q-14 -3 -22 -15.5t-5 -26.5t15.5 -22t26.5 -4.5t22 15.5t5 26t-15.5 22t-26.5 5zM826 521q-14 -3 -22 -15t-4.5 -26.5t15.5 -22t26 -4.5t22 15t5 26.5t-15.5 22t-26.5 4.5zM346 509l-58 -46l45 -59zM294 377l-46 59l-59 -46zM161 435l54 42l-42 54z
M215 560l42 -54l53 42zM519 465v-39h65v39h-65zM880 701q-86 42 -186 0v-51q32 13 66 13q69 0 120 -47v85zM131 701v-85q51 47 120 47q34 0 66 -13v51q-100 43 -186 0z" />
  </font>
</defs>
</svg>
